Enrique Iglesias ft. Pitbull - Let Me Be Your Lover (Bis.HD.1080i.DD5.1).-Crusha

Discussion in 'BIS HD' started by Crusha, May 26, 2015.

  1. Crusha

    Crusha Well-Known Member Capper V . I . P.

    Joined:
    Oct 15, 2014
    Messages:
    2,359
    Likes Received:
    2,980
    [​IMG]

    General
    ID : 1 (0x1)
    Complete name : Enrique Iglesias ft. Pitbull - Let Me Be Your Lover (Bis.HD.1080i.DD5.1).-Crusha.ts
    Format : MPEG-TS
    File size : 134 MiB
    Duration : 4mn 1s
    Overall bit rate mode : Variable
    Overall bit rate : 4 661 Kbps

    Video
    ID : 2027 (0x7EB)
    Menu ID : 802 (0x322)
    Format : AVC
    Format/Info : Advanced Video Codec
    Format profile : High@L4.0
    Format settings, CABAC : Yes
    Format settings, ReFrames : 4 frames
    Codec ID : 27
    Duration : 4mn 1s
    Bit rate : 4 043 Kbps
    Width : 1 920 pixels
    Height : 1 080 pixels
    Display aspect ratio : 16:9
    Frame rate : 29.970 fps
    Standard : Component
    Color space : YUV
    Chroma subsampling : 4:2:0
    Bit depth : 8 bits
    Scan type : MBAFF
    Scan order : Top Field First
    Bits/(Pixel*Frame) : 0.065
    Stream size : 117 MiB (87%)
    Color primaries : BT.709
    Transfer characteristics : BT.709
    Matrix coefficients : BT.709
    Color range : Limited

    Audio
    ID : 3027 (0xBD3)
    Menu ID : 802 (0x322)
    Format : AC-3
    Format/Info : Audio Coding 3
    Mode extension : CM (complete main)
    Format settings, Endianness : Big
    Codec ID : 6
    Duration : 4mn 1s
    Bit rate mode : Constant
    Bit rate : 384 Kbps
    Channel(s) : 6 channels
    Channel positions : Front: L C R, Side: L R, LFE
    Sampling rate : 48.0 KHz
    Bit depth : 16 bits
    Compression mode : Lossy
    Stream size : 11.1 MiB (8%)
    Language : English

    Hidden Content:
    You must either reply or click 'Like' to see the hidden information contained here.
    Password: crusha

    Cap by Me :)
     
  2. Zatimi

    Zatimi Well-Known Member

    Joined:
    Aug 27, 2014
    Messages:
    933
    Likes Received:
    264
    thanks a lot
     
  3. Fahad Ahmed

    Fahad Ahmed New Member

    Joined:
    May 30, 2015
    Messages:
    13
    Likes Received:
    0
    thanks a lot
     
  4. rhea

    rhea Well-Known Member

    Joined:
    Jan 6, 2014
    Messages:
    8,301
    Likes Received:
    1,190
    dead :(