Enrique Iglesias - Bailando (TELEHIT.HD.1080i.DD2.0).-Crusha

Discussion in 'TELEHIT HD' started by Crusha, Mar 11, 2016.

  1. Crusha

    Crusha Well-Known Member Capper

    Joined:
    Oct 15, 2014
    Messages:
    2,350
    Likes Received:
    2,474
    [​IMG] [​IMG] [​IMG] [​IMG]

    Mediainfo
    General
    ID : 1 (0x1)
    Complete name : Enrique Iglesias - Bailando (TELEHIT.HD.1080i.DD2.0).-Crusha.ts
    Format : MPEG-TS
    File size : 95.9 MiB
    Duration : 4mn 19s
    Overall bit rate mode : Variable
    Overall bit rate : 3 107 Kbps

    Video
    ID : 2238 (0x8BE)
    Menu ID : 857 (0x359)
    Format : AVC
    Format/Info : Advanced Video Codec
    Format profile : [email protected]
    Format settings, CABAC : Yes
    Format settings, ReFrames : 4 frames
    Format settings, GOP : M=8, N=32
    Codec ID : 27
    Duration : 4mn 18s
    Bit rate : 2 759 Kbps
    Width : 1 920 pixels
    Height : 1 080 pixels
    Display aspect ratio : 16:9
    Frame rate : 29.970 fps
    Standard : Component
    Color space : YUV
    Chroma subsampling : 4:2:0
    Bit depth : 8 bits
    Scan type : MBAFF
    Scan order : Top Field First
    Bits/(Pixel*Frame) : 0.044
    Stream size : 85.1 MiB (89%)
    Color range : Limited
    Color primaries : BT.709
    Transfer characteristics : BT.709
    Matrix coefficients : BT.709

    Audio
    ID : 3849 (0xF09)
    Menu ID : 857 (0x359)
    Format : AC-3
    Format/Info : Audio Coding 3
    Mode extension : CM (complete main)
    Format settings, Endianness : Big
    Codec ID : 6
    Duration : 4mn 18s
    Bit rate mode : Constant
    Bit rate : 192 Kbps
    Channel(s) : 2 channels
    Channel positions : Front: L R
    Sampling rate : 48.0 KHz
    Bit depth : 16 bits
    Compression mode : Lossy
    Delay relative to video : -233ms
    Stream size : 5.92 MiB (6%)
    Language : English

    Hidden Content:
    You must reply before you can see the hidden data contained here.
    Password:
    crusha
     
  2. maurohachen

    maurohachen Member

    Joined:
    Feb 24, 2015
    Messages:
    407
    Likes Received:
    19
    GRACIAS<Q
     
  3. nevha

    nevha New Member

    Joined:
    Jul 1, 2016
    Messages:
    20
    Likes Received:
    0
    thank you
     
  4. Zeeh

    Zeeh Member

    Joined:
    Mar 20, 2015
    Messages:
    628
    Likes Received:
    14
    Thank you
     
  5. maurohachen

    maurohachen Member

    Joined:
    Feb 24, 2015
    Messages:
    407
    Likes Received:
    19
    Hola me podrías conseguir con urgencia el vídeo de yuridia cobarde que se estreno el viernes en Telehit?
     
  6. DiVenturas

    DiVenturas Well-Known Member

    Joined:
    Oct 21, 2015
    Messages:
    2,535
    Likes Received:
    100
  7. Olaflyn

    Olaflyn Member

    Joined:
    May 25, 2017
    Messages:
    75
    Likes Received:
    1
    Thanks
     
  8. NiceBoy

    NiceBoy Member

    Joined:
    May 20, 2016
    Messages:
    232
    Likes Received:
    5