Eminem - The Way I Am (ALAC-Upscale-1080p)

Discussion in 'UPSCALED' started by ddnt32, Oct 28, 2020.

  1. ddnt32

    ddnt32 Well-Known Member

    Joined:
    Jan 11, 2014
    Messages:
    193
    Likes Received:
    1,539
    [​IMG]

    [​IMG]
    [​IMG]
    [​IMG]
    [​IMG]
    [​IMG]
    [​IMG]
    [​IMG]
    [​IMG]
    [​IMG]
    [​IMG]
    [​IMG]
    [​IMG]
    [​IMG]
    [​IMG]

    Source: VOB, deinterlaced with QTGMC to 60 fps, not IVTC'd because of lots of speed-ups and VFX done at 60 fps. Uncensored audio from LPCM VOB (includes all of the sound effects/speech).

    Code:
    General
    Complete name                            : F:\Videoclipes\SD e upscalings\Eminem - The Way I Am\Eminem - The Way I Am (2000).mp4
    Format                                   : MPEG-4
    Format profile                           : Base Media
    Codec ID                                 : isom (isom)
    File size                                : 896 MiB
    Duration                                 : 5 min 2 s
    Overall bit rate mode                    : Variable
    Overall bit rate                         : 24.8 Mb/s
    Encoded date                             : UTC 2020-10-23 20:43:51
    Tagged date                              : UTC 2020-10-23 20:43:51
    
    Video
    ID                                       : 1
    Format                                   : AVC
    Format/Info                              : Advanced Video Codec
    Format profile                           : High@L4.2
    Format settings                          : 1 Ref Frames
    Format settings, CABAC                   : No
    Format settings, Reference frames        : 1 frame
    Format settings, GOP                     : N=1
    Codec ID                                 : avc1
    Codec ID/Info                            : Advanced Video Coding
    Duration                                 : 5 min 2 s
    Bit rate                                 : 23.9 Mb/s
    Maximum bit rate                         : 58.7 Mb/s
    Width                                    : 1 920 pixels
    Height                                   : 832 pixels
    Display aspect ratio                     : 2.35:1
    Frame rate mode                          : Variable
    Frame rate                               : 59.940 (60000/1001) FPS
    Minimum frame rate                       : 59.920 FPS
    Maximum frame rate                       : 59.960 FPS
    Color space                              : YUV
    Chroma subsampling                       : 4:2:0
    Bit depth                                : 8 bits
    Scan type                                : Progressive
    Bits/(Pixel*Frame)                       : 0.250
    Stream size                              : 863 MiB (96%)
    Writing library                          : x264 core 157 r2935 545de2f
    Encoding settings                        : cabac=0 / ref=1 / deblock=1:-2:-2 / analyse=0x3:0x133 / me=umh / subme=9 / psy=1 / psy_rd=1.00:0.00 / mixed_ref=0 / me_range=16 / chroma_me=1 / trellis=2 / 8x8dct=1 / cqm=0 / deadzone=21,11 / fast_pskip=0 / chroma_qp_offset=-2 / threads=24 / lookahead_threads=2 / sliced_threads=0 / nr=0 / decimate=0 / interlaced=0 / bluray_compat=0 / constrained_intra=0 / bframes=0 / weightp=0 / keyint=12 / keyint_min=1 / scenecut=40 / intra_refresh=0 / rc_lookahead=12 / rc=crf / mbtree=1 / crf=17.0 / qcomp=0.80 / qpmin=0 / qpmax=69 / qpstep=4 / ip_ratio=1.40 / aq=1:0.50
    Encoded date                             : UTC 2020-10-23 20:30:51
    Tagged date                              : UTC 2020-10-23 20:43:54
    Color range                              : Limited
    Color primaries                          : BT.709
    Transfer characteristics                 : BT.709
    Matrix coefficients                      : BT.709
    Codec configuration box                  : avcC
    
    Audio
    ID                                       : 2
    Format                                   : ALAC
    Codec ID                                 : alac
    Codec ID/Info                            : Apple Lossless Audio Codec
    Duration                                 : 5 min 2 s
    Duration_LastFrame                       : -12 ms
    Bit rate mode                            : Variable
    Bit rate                                 : 908 kb/s
    Nominal bit rate                         : 2 917 Mb/s
    Maximum bit rate                         : 1 062 kb/s
    Channel(s)                               : 2 channels
    Sampling rate                            : 44.1 kHz
    Bit depth                                : 16 bits
    Stream size                              : 32.8 MiB (4%)
    Encoded date                             : UTC 2020-10-23 20:43:04
    Tagged date                              : UTC 2020-10-23 20:43:54
    
    Hidden Content:
    You must either reply or click 'Like' to see the hidden information contained here.
     
    bobuk8888, vette90, Shadizz and 7 others like this.
  2. Loading...


  3. multimediafm

    multimediafm Well-Known Member Archiver Donor

    Joined:
    Mar 27, 2014
    Messages:
    18,791
    Likes Received:
    1,872
  4. TGO

    TGO Well-Known Member Donor

    Joined:
    Sep 28, 2017
    Messages:
    435
    Likes Received:
    255
    Jesus!
    you have been a busy bee, great work!
     
  5. MarkAle

    MarkAle Active Member

    Joined:
    Aug 20, 2016
    Messages:
    867
    Likes Received:
    80
    Thanks
     
  6. muratguren

    muratguren Well-Known Member

    Joined:
    Mar 6, 2016
    Messages:
    2,485
    Likes Received:
    57
    thank you
     
  7. romeeek

    romeeek Active Member

    Joined:
    Jul 25, 2016
    Messages:
    708
    Likes Received:
    28
    gracias
     
  8. tn5656

    tn5656 Well-Known Member

    Joined:
    Jan 20, 2017
    Messages:
    8,636
    Likes Received:
    640
    Thank you for this !!!
     
  9. doddsyv1

    doddsyv1 Member

    Joined:
    Jan 14, 2017
    Messages:
    188
    Likes Received:
    5
    thanks guy
     
  10. MajorVi

    MajorVi Active Member

    Joined:
    Feb 12, 2016
    Messages:
    729
    Likes Received:
    30
    Thank you
     
  11. embis2003

    embis2003 Well-Known Member

    Joined:
    Jul 22, 2019
    Messages:
    305
    Likes Received:
    379
    thanks
     
  12. rafaalone

    rafaalone Member

    Joined:
    Dec 1, 2016
    Messages:
    332
    Likes Received:
    10
  13. markob53

    markob53 Member

    Joined:
    Oct 17, 2017
    Messages:
    242
    Likes Received:
    8
    thanks.........................
     
  14. THERION X

    THERION X Member

    Joined:
    Feb 27, 2017
    Messages:
    552
    Likes Received:
    12
    GRACIAS
     
  15. Rebelde25

    Rebelde25 Member

    Joined:
    Sep 30, 2020
    Messages:
    389
    Likes Received:
    22
  16. duloshare

    duloshare Member

    Joined:
    Oct 27, 2020
    Messages:
    166
    Likes Received:
    1