Eminem - Stan (feat. Dido) (VIVAHD-1080i-DD2.0-Djodjara)-HDMania

Discussion in 'VIVA HD' started by Djodjara, Dec 15, 2014.

  1. yvanciitox

    yvanciitox New Member

    Joined:
    Apr 8, 2016
    Messages:
    21
    Likes Received:
    2
    thanks
     
  2. revilo18

    revilo18 Well-Known Member

    Joined:
    May 26, 2016
    Messages:
    1,513
    Likes Received:
    65
    THANK
     
  3. gayway

    gayway Active Member

    Joined:
    Mar 10, 2016
    Messages:
    840
    Likes Received:
    48
    Thank You!
     
  4. jimijims

    jimijims Member

    Joined:
    Jul 13, 2016
    Messages:
    243
    Likes Received:
    7
  5. Pramod Marshall

    Pramod Marshall New Member

    Joined:
    Aug 30, 2016
    Messages:
    15
    Likes Received:
    0
  6. tapions

    tapions Active Member

    Joined:
    Aug 30, 2016
    Messages:
    835
    Likes Received:
    60
    gracias
     
  7. CristianMatias

    CristianMatias Member

    Joined:
    Sep 17, 2016
    Messages:
    586
    Likes Received:
    17
  8. CristianMatias

    CristianMatias Member

    Joined:
    Sep 17, 2016
    Messages:
    586
    Likes Received:
    17
    eminem
    Eminem - Stan (feat. Dido) (VIVA HD-1080i-Djodjara)-HDMania

    [​IMG]
    [​IMG]

    General:
    ID : 95 (0x5F)
    Format : MPEG-TS
    File size : 398 MiB
    Duration : 6mn 12s
    Overall bit rate mode : Variable
    Overall bit rate : 8 958 Kbps

    Video:
    ID : 528 (0x210)
    Menu ID : 9067 (0x236B)
    Format : AVC
    Format/Info : Advanced Video Codec
    Format profile : [email protected]
    Format settings, CABAC : Yes
    Format settings, ReFrames : 3 frames
    Codec ID : 27
    Duration : 6mn 12s
    Bit rate : 8 063 Kbps
    Width : 1 920 pixels
    Height : 1 080 pixels
    Display aspect ratio : 16:9
    Frame rate : 25.000 fps
    Standard : Component
    Color space : YUV
    Chroma subsampling : 4:2:0
    Bit depth : 8 bits
    Scan type : Interlaced
    Bits/(Pixel*Frame) : 0.156
    Stream size : 358 MiB (90%)
    Color primaries : BT.709
    Transfer characteristics : BT.709
    Matrix coefficients : BT.709

    Audio #1:
    ID : 529 (0x211)
    Menu ID : 9067 (0x236B)
    Format : MPEG Audio
    Format version : Version 1
    Format profile : Layer 2
    Codec ID : 4
    Duration : 6mn 12s
    Bit rate mode : Constant
    Bit rate : 256 Kbps
    Channel count : 2 channels
    Sampling rate : 48.0 KHz
    Compression mode : Lossy
    Delay relative to video : 17ms
    Stream size : 11.4 MiB (3%)
    Language : German

    Audio #2:
    ID : 539 (0x21B)
    Menu ID : 9067 (0x236B)
    Format : AC-3
    Format/Info : Audio Coding 3
    Mode extension : HI (hearing impaired)
    Format settings, Endianness : Big
    Codec ID : 6
    Duration : 6mn 12s
    Bit rate mode : Constant
    Bit rate : 192 Kbps
    Channel count : 2 channels
    Channel positions : Front: L R
    Sampling rate : 48.0 KHz
    Bit depth : 16 bits
    Compression mode : Lossy
    Delay relative to video : 149ms
    Stream size : 8.53 MiB (2%)
    Language : German

    ***Hidden content cannot be quoted.***
    [/QUOTE]
     
  9. CristianMatias

    CristianMatias Member

    Joined:
    Sep 17, 2016
    Messages:
    586
    Likes Received:
    17
  10. Roy0311

    Roy0311 Member

    Joined:
    Oct 10, 2016
    Messages:
    49
    Likes Received:
    1
    thanks
     
  11. xavier777

    xavier777 Active Member

    Joined:
    Aug 29, 2016
    Messages:
    373
    Likes Received:
    34
    Thanks
     
  12. Praveen867

    Praveen867 Member

    Joined:
    Nov 14, 2016
    Messages:
    488
    Likes Received:
    3
    TYYYYYYYYYYYYYYYYYYYYYY
     
  13. rafaalone

    rafaalone Member

    Joined:
    Dec 1, 2016
    Messages:
    42
    Likes Received:
    6
  14. D3mon86

    D3mon86 Member

    Joined:
    Dec 19, 2016
    Messages:
    451
    Likes Received:
    2
    thanks
     
  15. Aamir Mulla

    Aamir Mulla New Member

    Joined:
    Jun 21, 2016
    Messages:
    3
    Likes Received:
    0
  16. Aamir Mulla

    Aamir Mulla New Member

    Joined:
    Jun 21, 2016
    Messages:
    3
    Likes Received:
    0
    [/QUOTE]
    thanksss
     
  17. Daniel Leite

    Daniel Leite Member

    Joined:
    Feb 18, 2017
    Messages:
    32
    Likes Received:
    5
    Shaaaady
    Eminem - Stan (feat. Dido) (VIVA HD-1080i-Djodjara)-HDMania

    [​IMG]
    [​IMG]

    General:
    ID : 95 (0x5F)
    Format : MPEG-TS
    File size : 398 MiB
    Duration : 6mn 12s
    Overall bit rate mode : Variable
    Overall bit rate : 8 958 Kbps

    Video:
    ID : 528 (0x210)
    Menu ID : 9067 (0x236B)
    Format : AVC
    Format/Info : Advanced Video Codec
    Format profile : [email protected]
    Format settings, CABAC : Yes
    Format settings, ReFrames : 3 frames
    Codec ID : 27
    Duration : 6mn 12s
    Bit rate : 8 063 Kbps
    Width : 1 920 pixels
    Height : 1 080 pixels
    Display aspect ratio : 16:9
    Frame rate : 25.000 fps
    Standard : Component
    Color space : YUV
    Chroma subsampling : 4:2:0
    Bit depth : 8 bits
    Scan type : Interlaced
    Bits/(Pixel*Frame) : 0.156
    Stream size : 358 MiB (90%)
    Color primaries : BT.709
    Transfer characteristics : BT.709
    Matrix coefficients : BT.709

    Audio #1:
    ID : 529 (0x211)
    Menu ID : 9067 (0x236B)
    Format : MPEG Audio
    Format version : Version 1
    Format profile : Layer 2
    Codec ID : 4
    Duration : 6mn 12s
    Bit rate mode : Constant
    Bit rate : 256 Kbps
    Channel count : 2 channels
    Sampling rate : 48.0 KHz
    Compression mode : Lossy
    Delay relative to video : 17ms
    Stream size : 11.4 MiB (3%)
    Language : German

    Audio #2:
    ID : 539 (0x21B)
    Menu ID : 9067 (0x236B)
    Format : AC-3
    Format/Info : Audio Coding 3
    Mode extension : HI (hearing impaired)
    Format settings, Endianness : Big
    Codec ID : 6
    Duration : 6mn 12s
    Bit rate mode : Constant
    Bit rate : 192 Kbps
    Channel count : 2 channels
    Channel positions : Front: L R
    Sampling rate : 48.0 KHz
    Bit depth : 16 bits
    Compression mode : Lossy
    Delay relative to video : 149ms
    Stream size : 8.53 MiB (2%)
    Language : German

    ***Hidden content cannot be quoted.***
    [/QUOTE]
     
    thesparkly1 likes this.
  18. seregil

    seregil Member

    Joined:
    Sep 5, 2014
    Messages:
    103
    Likes Received:
    1
    thanks
     
  19. looky

    looky Member

    Joined:
    Mar 22, 2017
    Messages:
    172
    Likes Received:
    3
    gracias
     
  20. DiVenturas

    DiVenturas Active Member

    Joined:
    Oct 21, 2015
    Messages:
    1,219
    Likes Received:
    20