WEB-RiP Eminem - Mockingbird - 1080P

Discussion in 'VEVO' started by Matheus10, May 16, 2018 at 3:42 AM.

  1. Matheus10

    Matheus10 Well-Known Member

    Joined:
    Oct 2, 2017
    Messages:
    401
    Likes Received:
    624
    [​IMG]
    Code:
    General
    Format                         : MPEG-4
    Format profile                 : Base Media
    Codec ID                       : isom (isom/iso2/avc1/mp41)
    File size                      : 140 MiB
    Duration                       : 4 min 18 s
    Overall bit rate               : 4 531 kb/s
    Writing application            : Lavf56.16.102
    
    Video
    ID                             : 1
    Format                         : AVC
    Format/Info                    : Advanced Video Codec
    Format profile                 : Main@L4
    Format settings, CABAC         : Yes
    Format settings, RefFrames     : 4 frames
    Codec ID                       : avc1
    Codec ID/Info                  : Advanced Video Coding
    Duration                       : 4 min 18 s
    Bit rate                       : 4 420 kb/s
    Width                          : 1 920 pixels
    Height                         : 1 080 pixels
    Display aspect ratio           : 16:9
    Frame rate mode                : Constant
    Frame rate                     : 25.000 FPS
    Color space                    : YUV
    Chroma subsampling             : 4:2:0
    Bit depth                      : 8 bits
    Scan type                      : Progressive
    Bits/(Pixel*Frame)             : 0.085
    Stream size                    : 135 MiB (97%)
    Writing library                : x264 core 144 r2 40bb568
    Encoding settings              : cabac=1 / ref=3 / deblock=1:0:0 / analyse=0x1:0x131 / me=umh / subme=10 / psy=1 / psy_rd=1.00:0.00 / mixed_ref=1 / me_range=24 / chroma_me=1 / trellis=2 / 8x8dct=0 / cqm=0 / deadzone=21,11 / fast_pskip=1 / chroma_qp_offset=-2 / threads=12 / lookahead_threads=1 / sliced_threads=0 / nr=0 / decimate=1 / interlaced=0 / bluray_compat=0 / constrained_intra=0 / bframes=3 / b_pyramid=2 / b_adapt=1 / b_bias=0 / direct=1 / weightb=1 / open_gop=0 / weightp=2 / keyint=125 / keyint_min=10 / scenecut=40 / intra_refresh=0 / rc_lookahead=60 / rc=2pass / mbtree=1 / bitrate=4420 / ratetol=1.0 / qcomp=0.60 / qpmin=0 / qpmax=69 / qpstep=4 / cplxblur=20.0 / qblur=0.5 / vbv_maxrate=5200 / vbv_bufsize=5200 / nal_hrd=none / filler=0 / ip_ratio=1.40 / aq=1:1.00
    
    Audio
    ID                             : 2
    Format                         : AAC
    Format/Info                    : Advanced Audio Codec
    Format profile                 : LC
    Codec ID                       : 40
    Duration                       : 4 min 18 s
    Bit rate mode                  : Constant
    Bit rate                       : 128 kb/s
    Channel(s)                     : 2 channels
    Channel positions              : Front: L R
    Sampling rate                  : 44.1 kHz
    Frame rate                     : 43.066 FPS (1024 SPF)
    Compression mode               : Lossy
    Stream size                    : 3.94 MiB (3%)
    Default                        : Yes
    Alternate group                : 1
    
    Hidden Content:
    You must either reply or click 'Like' to see the hidden information contained here.
    Hidden Content:
    You must reply before you can see the hidden data contained here.
     
    tf135 likes this.
  2. Loading...


  3. CristianMatias

    CristianMatias HIGH DEFINITION

    Joined:
    Sep 17, 2016
    Messages:
    990
    Likes Received:
    37
    Muchas Gracias Deberás amigo MATHE
     
  4. tn5656

    tn5656 Well-Known Member

    Joined:
    Jan 20, 2017
    Messages:
    2,536
    Likes Received:
    95
  5. tf135

    tf135 Well-Known Member

    Joined:
    Nov 14, 2014
    Messages:
    2,956
    Likes Received:
    177