Ellie Goulding - Love Me Like You Do [Uncensored] (Multishow.HD.1080i.DD5.1).-Crusha

Discussion in 'MULTISHOW HD' started by Crusha, May 12, 2015.

  1. Crusha

    Crusha Well-Known Member Capper

    Joined:
    Oct 15, 2014
    Messages:
    2,349
    Likes Received:
    2,074
    [​IMG]

    General
    ID : 1 (0x1)
    Complete name : C:\Users\SONGOKU\Videos\Ellie Goulding - Love Me Like You Do (Multishow.HD.1080i.DD5.1).-Crusha.ts
    Format : MPEG-TS
    File size : 90.3 MiB
    Duration : 4mn 7s
    Overall bit rate mode : Variable
    Overall bit rate : 3 056 Kbps

    Video
    ID : 2593 (0xA21)
    Menu ID : 2542 (0x9EE)
    Format : AVC
    Format/Info : Advanced Video Codec
    Format profile : [email protected]
    Format settings, CABAC : Yes
    Format settings, ReFrames : 4 frames
    Codec ID : 27
    Duration : 4mn 7s
    Bit rate : 2 517 Kbps
    Width : 1 920 pixels
    Height : 1 080 pixels
    Display aspect ratio : 16:9
    Frame rate : 29.970 fps
    Standard : Component
    Color space : YUV
    Chroma subsampling : 4:2:0
    Bit depth : 8 bits
    Scan type : MBAFF
    Scan order : Top Field First
    Bits/(Pixel*Frame) : 0.041
    Stream size : 74.3 MiB (82%)
    Color primaries : BT.709
    Transfer characteristics : BT.709
    Matrix coefficients : BT.709
    Color range : Limited

    Audio
    ID : 3593 (0xE09)
    Menu ID : 2542 (0x9EE)
    Format : AC-3
    Format/Info : Audio Coding 3
    Mode extension : CM (complete main)
    Format settings, Endianness : Big
    Codec ID : 6
    Duration : 4mn 7s
    Bit rate mode : Constant
    Bit rate : 384 Kbps
    Channel(s) : 6 channels
    Channel positions : Front: L C R, Side: L R, LFE
    Sampling rate : 48.0 KHz
    Bit depth : 16 bits
    Compression mode : Lossy
    Delay relative to video : -66ms
    Stream size : 11.3 MiB (13%)
    Language : English

    Hidden Content:
    You must either reply or click 'Like' to see the hidden information contained here.
    Password: crusha

    Cap by Me :p
     
  2. Loading...


  3. rhea

    rhea Well-Known Member

    Joined:
    Jan 6, 2014
    Messages:
    5,193
    Likes Received:
    250
    thanks a lot
     
  4. Joseph

    Joseph Active Member

    Joined:
    Dec 10, 2013
    Messages:
    726
    Likes Received:
    144
    thank you!
     
  5. Ree

    Ree New Member

    Joined:
    Dec 18, 2013
    Messages:
    25
    Likes Received:
    1
    thanks for uncensored version and 5.1
     
  6. multimediafm

    multimediafm Well-Known Member Donor

    Joined:
    Mar 27, 2014
    Messages:
    8,060
    Likes Received:
    320
    Thanks :)
    Ellie Goulding - Love Me Like You Do [Uncensored] (Multishow.HD.1080i.DD5.1).-Crusha
     
  7. dapape

    dapape Member

    Joined:
    Jun 9, 2014
    Messages:
    134
    Likes Received:
    1
    nice XD
     
  8. rdpillz

    rdpillz Member

    Joined:
    Mar 13, 2016
    Messages:
    56
    Likes Received:
    1
    thanks
     
  9. alterion

    alterion Member

    Joined:
    May 7, 2016
    Messages:
    349
    Likes Received:
    9
    thanks
     
  10. maurohachen

    maurohachen Member

    Joined:
    Feb 24, 2015
    Messages:
    390
    Likes Received:
    14
    Hola Gracias
     
  11. Nildocp

    Nildocp New Member

    Joined:
    Nov 26, 2016
    Messages:
    5
    Likes Received:
    0
    Gracias