Ellie Goulding - Love Me Like You Do (TELEHIT.HD.1080i.DD2.0).-Crusha

Discussion in 'TELEHIT HD' started by Crusha, Mar 24, 2016.

  1. Crusha

    Crusha Well-Known Member Capper

    Joined:
    Oct 15, 2014
    Messages:
    2,350
    Likes Received:
    2,474
    [​IMG] [​IMG] [​IMG] [​IMG] [​IMG]

    Mediainfo
    General
    ID : 1 (0x1)
    Complete name : Ellie Goulding - Love Me Like You Do (TELEHIT.HD.1080i.DD2.0).-Crusha.ts
    Format : MPEG-TS
    File size : 80.7 MiB
    Duration : 4mn 8s
    Overall bit rate mode : Variable
    Overall bit rate : 2 728 Kbps

    Video
    ID : 2238 (0x8BE)
    Menu ID : 857 (0x359)
    Format : AVC
    Format/Info : Advanced Video Codec
    Format profile : [email protected]
    Format settings, CABAC : Yes
    Format settings, ReFrames : 4 frames
    Format settings, GOP : M=3, N=24
    Codec ID : 27
    Duration : 4mn 8s
    Bit rate : 2 399 Kbps
    Width : 1 920 pixels
    Height : 1 080 pixels
    Display aspect ratio : 16:9
    Frame rate : 29.970 fps
    Standard : Component
    Color space : YUV
    Chroma subsampling : 4:2:0
    Bit depth : 8 bits
    Scan type : MBAFF
    Scan order : Top Field First
    Bits/(Pixel*Frame) : 0.039
    Stream size : 71.0 MiB (88%)
    Color range : Limited
    Color primaries : BT.709
    Transfer characteristics : BT.709
    Matrix coefficients : BT.709

    Audio
    ID : 3849 (0xF09)
    Menu ID : 857 (0x359)
    Format : AC-3
    Format/Info : Audio Coding 3
    Mode extension : CM (complete main)
    Format settings, Endianness : Big
    Codec ID : 6
    Duration : 4mn 8s
    Bit rate mode : Constant
    Bit rate : 192 Kbps
    Channel(s) : 2 channels
    Channel positions : Front: L R
    Sampling rate : 48.0 KHz
    Compression mode : Lossy
    Stream size : 5.68 MiB (7%)
    Language : English

    Hidden Content:
    You must reply before you can see the hidden data contained here.

    Password:
    crusha
     
    zhxlivieng likes this.
  2. Snorom6

    Snorom6 Well-Known Member V . I . P. Uploader

    Joined:
    Dec 17, 2015
    Messages:
    4,242
    Likes Received:
    4,777
  3. angelm

    angelm Member

    Joined:
    Aug 5, 2016
    Messages:
    169
    Likes Received:
    6
    great
     
  4. maurohachen

    maurohachen Member

    Joined:
    Feb 24, 2015
    Messages:
    407
    Likes Received:
    19
    i love thank you more videos upload!!!!!!!!!!!!!!!!!!!!
     
  5. revilo18

    revilo18 Well-Known Member

    Joined:
    May 26, 2016
    Messages:
    1,691
    Likes Received:
    78
    thankkk
     
  6. zhxlivieng

    zhxlivieng New Member

    Joined:
    Sep 5, 2016
    Messages:
    14
    Likes Received:
    1
    ok i like it
     
  7. seregil

    seregil Member

    Joined:
    Sep 5, 2014
    Messages:
    103
    Likes Received:
    1
    thanks
     
  8. mikefox323

    mikefox323 New Member

    Joined:
    Jul 30, 2017
    Messages:
    17
    Likes Received:
    0
  9. NiceBoy

    NiceBoy Member

    Joined:
    May 20, 2016
    Messages:
    232
    Likes Received:
    5