Ellie Goulding - Lights (M6HD-1080i-DD5.1-art-v-k)-HDMania

Discussion in 'M6 HD' started by adam dark, Dec 19, 2013.

  1. adam dark

    adam dark Video Music Lover <3 V . I . P.

    Joined:
    Dec 5, 2013
    Messages:
    2,563
    Likes Received:
    4,353
    Ellie Goulding - Lights (M6 music video)

    [​IMG]

    [​IMG]

    [​IMG]

    [​IMG]

    [​IMG]

    [​IMG]

    [​IMG]

    General
    ID : 6600 (0x19C8)
    Complete name : Ellie Goulding - Lights (M6-clip music video).ts
    Format : MPEG-TS
    File size : 196 MiB
    Duration : 3mn 29s
    Overall bit rate mode : Variable
    Overall bit rate : 7 882 Kbps

    Video
    ID : 2020 (0x7E4)
    Menu ID : 202 (0xCA)
    Format : AVC
    Format/Info : Advanced Video Codec
    Format profile : [email protected]
    Format settings, CABAC : Yes
    Format settings, ReFrames : 4 frames
    Codec ID : 27
    Duration : 3mn 28s
    Bit rate : 7 105 Kbps
    Width : 1 920 pixels
    Height : 1 080 pixels
    Display aspect ratio : 16:9
    Frame rate : 25.000 fps
    Color space : YUV
    Chroma subsampling : 4:2:0
    Bit depth : 8 bits
    Scan type : MBAFF
    Bits/(Pixel*Frame) : 0.137
    Stream size : 177 MiB (90%)
    Color primaries : BT.709
    Transfer characteristics : BT.709
    Matrix coefficients : BT.709

    Audio
    ID : 2021 (0x7E5)
    Menu ID : 202 (0xCA)
    Format : AC-3
    Format/Info : Audio Coding 3
    Mode extension : CM (complete main)
    Format settings, Endianness : Big
    Codec ID : 6
    Duration : 3mn 28s
    Bit rate mode : Constant
    Bit rate : 384 Kbps
    Channel count : 6 channels
    Channel positions : Front: L C R, Side: L R, LFE
    Sampling rate : 48.0 KHz
    Bit depth : 16 bits
    Compression mode : Lossy
    Delay relative to video : 8ms
    Stream size : 9.56 MiB (5%)
    Language : French


    Hidden Content:
    You must reply before you can see the hidden data contained here.
    Credit to the original Capper
     
    erickcornellian and lebartt like this.
  2. Loading...


  3. santa321

    santa321 Well-Known Member

    Joined:
    Dec 7, 2013
    Messages:
    1,330
    Likes Received:
    36
    thanks
     
  4. Grailen

    Grailen Well-Known Member

    Joined:
    Oct 8, 2013
    Messages:
    574
    Likes Received:
    711
    thanks!!!
     
  5. funhawg

    funhawg Member

    Joined:
    Jan 4, 2014
    Messages:
    182
    Likes Received:
    3
    Thanks
     
  6. swarup dutta

    swarup dutta Member

    Joined:
    Dec 29, 2013
    Messages:
    77
    Likes Received:
    1
  7. AlexKamaz

    AlexKamaz New Member

    Joined:
    Dec 30, 2013
    Messages:
    4
    Likes Received:
    1
  8. faz

    faz Member

    Joined:
    Jan 9, 2014
    Messages:
    265
    Likes Received:
    2
    thank you
     
  9. Rendy Rick

    Rendy Rick New Member

    Joined:
    Feb 1, 2014
    Messages:
    2
    Likes Received:
    0
    thanks
     
  10. larzpolanzki

    larzpolanzki Member

    Joined:
    Feb 10, 2014
    Messages:
    416
    Likes Received:
    13
    ellie is beautiful
     
    adam dark likes this.
  11. dapape

    dapape Member

    Joined:
    Jun 9, 2014
    Messages:
    134
    Likes Received:
    1
  12. adam dark

    adam dark Video Music Lover <3 V . I . P.

    Joined:
    Dec 5, 2013
    Messages:
    2,563
    Likes Received:
    4,353
    you're welcome!
     
  13. adam dark

    adam dark Video Music Lover <3 V . I . P.

    Joined:
    Dec 5, 2013
    Messages:
    2,563
    Likes Received:
    4,353
    you're welcome!
     
  14. MCTR

    MCTR Active Member

    Joined:
    Feb 23, 2014
    Messages:
    293
    Likes Received:
    35
    thanks
     
  15. adam dark

    adam dark Video Music Lover <3 V . I . P.

    Joined:
    Dec 5, 2013
    Messages:
    2,563
    Likes Received:
    4,353
    you're welcome, enjoy it!
     
  16. gstnedgrdrch93

    gstnedgrdrch93 Member

    Joined:
    Oct 12, 2014
    Messages:
    50
    Likes Received:
    1
     
  17. alvin

    alvin Member

    Joined:
    May 11, 2014
    Messages:
    231
    Likes Received:
    15
     
  18. Maarzzz

    Maarzzz New Member

    Joined:
    Jan 15, 2015
    Messages:
    7
    Likes Received:
    1
     
  19. Vinny

    Vinny Active Member

    Joined:
    Dec 26, 2013
    Messages:
    2,955
    Likes Received:
    12
    Thank U!
     
  20. yonita

    yonita Active Member

    Joined:
    Mar 7, 2016
    Messages:
    399
    Likes Received:
    38
    gracias
     
  21. zhxliveing

    zhxliveing Member

    Joined:
    Sep 7, 2016
    Messages:
    385
    Likes Received:
    19
    i
    .*★*.
    .*★ *.*    ★
    ★      *
    ★ .’
    ‘*.    .
    ` . . this
    song