Ellie Goulding - Burn (W9 [email protected])

Discussion in 'W9 HD' started by Dreamer, Nov 8, 2015.

  1. Dreamer

    Dreamer ♫ It's Britney Bitch ♫ Capper Uploader

    Joined:
    Dec 4, 2014
    Messages:
    2,219
    Likes Received:
    1,937
    Ellie Goulding - Burn (W9 HD)

    [​IMG]


    Format : MPEG-TS
    File size : 188 MiB
    Duration : 3mn 49s
    Overall bit rate mode : Variable
    Overall bit rate : 6 873 Kbps

    Video
    ID : 171 (0xAB)
    Menu ID : 9312 (0x2460)
    Format : AVC
    Format/Info : Advanced Video Codec
    Format profile : [email protected]
    Format settings, CABAC : Yes
    Format settings, ReFrames : 4 frames
    Codec ID : 27
    Duration : 3mn 50s
    Bit rate : 5 887 Kbps
    Width : 1 920 pixels
    Height : 1 080 pixels
    Display aspect ratio : 16:9
    Frame rate : 25.000 fps
    Color space : YUV
    Chroma subsampling : 4:2:0
    Bit depth : 8 bits
    Scan type : MBAFF
    Scan order : Top Field First
    Bits/(Pixel*Frame) : 0.114
    Stream size : 161 MiB (86%)
    Encryption : Seca Mediaguard 1/2
    Color range : Limited
    Color primaries : BT.709
    Transfer characteristics : BT.709
    Matrix coefficients : BT.709

    Audio #1
    ID : 125 (0x7D)
    Menu ID : 9312 (0x2460)
    Format : AC-3
    Format/Info : Audio Coding 3
    Mode extension : CM (complete main)
    Format settings, Endianness : Big
    Codec ID : 6
    Duration : 3mn 50s
    Bit rate mode : Constant
    Bit rate : 384 Kbps
    Channel(s) : 6 channels
    Channel positions : Front: L C R, Side: L R, LFE
    Sampling rate : 48.0 KHz
    Compression mode : Lossy
    Delay relative to video : 28ms
    Stream size : 10.5 MiB (6%)
    Language : French
    Encryption : Seca Mediaguard 1/2

    Audio #2
    ID : 126 (0x7E)
    Menu ID : 9312 (0x2460)
    Format : AC-3
    Format/Info : Audio Coding 3
    Format profile : Dolby Digital
    Mode extension : CM (complete main)
    Format settings, Endianness : Big
    Codec ID : 6
    Duration : 3mn 50s
    Bit rate mode : Constant
    Bit rate : 256 Kbps
    Channel(s) : 2 channels
    Channel positions : Front: L R
    Sampling rate : 48.0 KHz
    Compression mode : Lossy
    Delay relative to video : 23ms
    Stream size : 7.02 MiB (4%)
    Language : English
    Encryption : Seca Mediaguard 1/2

    Capped by @rt-vk

    Hidden Content:
    You must reply before you can see the hidden data contained here.
     
    Last edited: Jan 23, 2016
    1D4EVER and rhea like this.
  2. rhea

    rhea Well-Known Member

    Joined:
    Jan 6, 2014
    Messages:
    5,266
    Likes Received:
    253
    thank you so much
     
  3. Grailen

    Grailen Well-Known Member

    Joined:
    Oct 8, 2013
    Messages:
    531
    Likes Received:
    470
    thank you
     
  4. 1D4EVER

    1D4EVER Active Member

    Joined:
    Dec 22, 2014
    Messages:
    337
    Likes Received:
    22
    thanks:)
     
  5. hungquocphan

    hungquocphan Member

    Joined:
    Nov 1, 2013
    Messages:
    433
    Likes Received:
    9
    thank for share
     
  6. Pavulon

    Pavulon Active Member

    Joined:
    Mar 22, 2016
    Messages:
    1,185
    Likes Received:
    12
    thanks
     
  7. faz

    faz Member

    Joined:
    Jan 9, 2014
    Messages:
    221
    Likes Received:
    1
    thank you...