DVD Elisa - Teach Me Again (Feat. Tina Turner)/ (Live/Greatest Hits 96-06) [VOB]

Discussion in 'SD' started by claudio1301, Jun 6, 2020.

  1. claudio1301

    claudio1301 Well-Known Member

    Joined:
    Oct 2, 2018
    Messages:
    1,166
    Likes Received:
    2,467
    Host: Mediafire

    [​IMG]
    Code:
    General
    Complete name                  : Elisa - Teach Me Again (Feat. Tina Turner) (Clean).VOB
    Format                         : MPEG-PS
    File size                      : 225 MiB
    Duration                       : 4 min 36 s
    Overall bit rate mode          : Variable
    Overall bit rate               : 6 841 kb/s
    
    Video
    ID                             : 224 (0xE0)
    Format                         : MPEG Video
    Format version                 : Version 2
    Format profile                 : Main@Main
    Format settings                : CustomMatrix / BVOP
    Format settings, BVOP          : Yes
    Format settings, Matrix        : Custom
    Format settings, GOP           : Variable
    Format settings, picture struc : Frame
    Duration                       : 4 min 36 s
    Bit rate mode                  : Variable
    Bit rate                       : 6 513 kb/s
    Maximum bit rate               : 9 586 kb/s
    Width                          : 720 pixels
    Height                         : 480 pixels
    Display aspect ratio           : 4:3
    Frame rate                     : 29.970 (30000/1001) FPS
    Standard                       : NTSC
    Color space                    : YUV
    Chroma subsampling             : 4:2:0
    Bit depth                      : 8 bits
    Scan type                      : Interlaced
    Scan order                     : Top Field First
    Compression mode               : Lossy
    Bits/(Pixel*Frame)             : 0.629
    Time code of first frame       : 00:00:00:00
    Time code source               : Group of pictures header
    GOP, Open/Closed               : Open
    GOP, Open/Closed of first fram : Closed
    Stream size                    : 215 MiB (95%)
    
    Audio
    ID                             : 189 (0xBD)-128 (0x80)
    Format                         : AC-3
    Format/Info                    : Audio Coding 3
    Commercial name                : Dolby Digital
    Muxing mode                    : DVD-Video
    Duration                       : 4 min 36 s
    Bit rate mode                  : Constant
    Bit rate                       : 192 kb/s
    Channel(s)                     : 2 channels
    Channel layout                 : L R
    Sampling rate                  : 48.0 kHz
    Frame rate                     : 31.250 FPS (1536 SPF)
    Compression mode               : Lossy
    Delay relative to video        : -33 ms
    Stream size                    : 6.32 MiB (3%)
    Service kind                   : Complete Main
    
    Menu
    Hidden Content:
    You must either reply or click 'Like' to see the hidden information contained here.
    [​IMG]
    Code:
    General
    Complete name                  : Elisa - Teach Me Again (Live) (Greatest Hits 96-06 DVD).VOB
    Format                         : MPEG-PS
    File size                      : 254 MiB
    Duration                       : 4 min 49 s
    Overall bit rate mode          : Variable
    Overall bit rate               : 7 362 kb/s
    
    Video
    ID                             : 224 (0xE0)
    Format                         : MPEG Video
    Format version                 : Version 2
    Format profile                 : Main@Main
    Format settings                : CustomMatrix / BVOP
    Format settings, BVOP          : Yes
    Format settings, Matrix        : Custom
    Format settings, GOP           : M=3, N=12
    Format settings, picture struc : Frame
    Duration                       : 4 min 49 s
    Bit rate mode                  : Variable
    Bit rate                       : 5 679 kb/s
    Maximum bit rate               : 7 000 kb/s
    Width                          : 720 pixels
    Height                         : 576 pixels
    Display aspect ratio           : 16:9
    Frame rate                     : 25.000 FPS
    Standard                       : PAL
    Color space                    : YUV
    Chroma subsampling             : 4:2:0
    Bit depth                      : 8 bits
    Scan type                      : Interlaced
    Scan order                     : Top Field First
    Compression mode               : Lossy
    Bits/(Pixel*Frame)             : 0.548
    Time code of first frame       : 01:21:38:11
    Time code source               : Group of pictures header
    GOP, Open/Closed               : Closed
    Stream size                    : 196 MiB (77%)
    Color primaries                : BT.601 PAL
    Transfer characteristics       : BT.470 System B/G
    Matrix coefficients            : BT.601
    
    Audio
    ID                             : 189 (0xBD)-160 (0xA0)
    Format                         : PCM
    Format settings                : Big / Signed
    Muxing mode                    : DVD-Video
    Duration                       : 4 min 49 s
    Bit rate mode                  : Constant
    Bit rate                       : 1 536 kb/s
    Channel(s)                     : 2 channels
    Sampling rate                  : 48.0 kHz
    Bit depth                      : 16 bits
    Delay relative to video        : -342 ms
    Stream size                    : 53.0 MiB (21%)
    
    Menu
    Hidden Content:
    You must either reply or click 'Like' to see the hidden information contained here.
     
  2. Loading...

    Similar Threads
    1. karlpukin
      Replies:
      0
      Views:
      204

  3. multimediafm

    multimediafm Well-Known Member Archiver Donor

    Joined:
    Mar 27, 2014
    Messages:
    17,937
    Likes Received:
    1,703