Eiza - Te Acordarás de Mi (TELEHIT.HD.1080i.DD2.0).-Crusha

Discussion in 'TELEHIT HD' started by Crusha, Mar 11, 2016.

  1. Crusha

    Crusha Well-Known Member Capper V . I . P.

    Joined:
    Oct 15, 2014
    Messages:
    2,358
    Likes Received:
    2,649
    [​IMG] [​IMG] [​IMG]

    Mediainfo
    General
    ID : 1 (0x1)
    Complete name : Eiza - Te Acordarás de Mi (TELEHIT.HD.1080i.DD2.0).-Crusha.ts
    Format : MPEG-TS
    File size : 83.9 MiB
    Duration : 3mn 1s
    Overall bit rate mode : Variable
    Overall bit rate : 3 867 Kbps

    Video
    ID : 2238 (0x8BE)
    Menu ID : 857 (0x359)
    Format : AVC
    Format/Info : Advanced Video Codec
    Format profile : [email protected]
    Format settings, CABAC : Yes
    Format settings, ReFrames : 4 frames
    Codec ID : 27
    Duration : 3mn 1s
    Bit rate : 3 482 Kbps
    Width : 1 920 pixels
    Height : 1 080 pixels
    Display aspect ratio : 16:9
    Frame rate : 29.970 fps
    Standard : Component
    Color space : YUV
    Chroma subsampling : 4:2:0
    Bit depth : 8 bits
    Scan type : MBAFF
    Scan order : Top Field First
    Bits/(Pixel*Frame) : 0.056
    Stream size : 75.5 MiB (90%)
    Color range : Limited
    Color primaries : BT.709
    Transfer characteristics : BT.709
    Matrix coefficients : BT.709

    Audio
    ID : 3849 (0xF09)
    Menu ID : 857 (0x359)
    Format : AC-3
    Format/Info : Audio Coding 3
    Mode extension : CM (complete main)
    Format settings, Endianness : Big
    Codec ID : 6
    Duration : 3mn 1s
    Bit rate mode : Constant
    Bit rate : 192 Kbps
    Channel(s) : 2 channels
    Channel positions : Front: L R
    Sampling rate : 48.0 KHz
    Bit depth : 16 bits
    Compression mode : Lossy
    Stream size : 4.16 MiB (5%)
    Language : English
    Hidden Content:
    You must reply before you can see the hidden data contained here.
    Password:
    crusha
     
    jison and revilo18 like this.
  2. revilo18

    revilo18 Well-Known Member

    Joined:
    May 26, 2016
    Messages:
    1,875
    Likes Received:
    85
    THANK
     
  3. 90dartz

    90dartz Member

    Joined:
    Jun 10, 2016
    Messages:
    35
    Likes Received:
    1
    Thanx.
     
  4. maurohachen

    maurohachen Active Member

    Joined:
    Feb 24, 2015
    Messages:
    469
    Likes Received:
    25
    Hola me podrias conseguir con urgencia el video de yuridia cobarde que se estreno el viernes en Telehit?
     
  5. rikylouis14

    rikylouis14 Well-Known Member

    Joined:
    Jun 27, 2016
    Messages:
    731
    Likes Received:
    452
  6. d1d2d3d5d8

    d1d2d3d5d8 Member

    Joined:
    May 20, 2016
    Messages:
    98
    Likes Received:
    5
  7. ErnestoHot

    ErnestoHot Member

    Joined:
    May 16, 2015
    Messages:
    242
    Likes Received:
    7
    thank you
     
  8. exterminador

    exterminador Well-Known Member

    Joined:
    Jul 3, 2016
    Messages:
    1,741
    Likes Received:
    158
  9. Luis luis

    Luis luis New Member

    Joined:
    Jul 24, 2016
    Messages:
    15
    Likes Received:
    1
    thanks gracias
    [​IMG] [​IMG] [​IMG]

    Mediainfo
    General
    ID : 1 (0x1)
    Complete name : Eiza - Te Acordarás de Mi (TELEHIT.HD.1080i.DD2.0).-Crusha.ts
    Format : MPEG-TS
    File size : 83.9 MiB
    Duration : 3mn 1s
    Overall bit rate mode : Variable
    Overall bit rate : 3 867 Kbps

    Video
    ID : 2238 (0x8BE)
    Menu ID : 857 (0x359)
    Format : AVC
    Format/Info : Advanced Video Codec
    Format profile : [email protected]
    Format settings, CABAC : Yes
    Format settings, ReFrames : 4 frames
    Codec ID : 27
    Duration : 3mn 1s
    Bit rate : 3 482 Kbps
    Width : 1 920 pixels
    Height : 1 080 pixels
    Display aspect ratio : 16:9
    Frame rate : 29.970 fps
    Standard : Component
    Color space : YUV
    Chroma subsampling : 4:2:0
    Bit depth : 8 bits
    Scan type : MBAFF
    Scan order : Top Field First
    Bits/(Pixel*Frame) : 0.056
    Stream size : 75.5 MiB (90%)
    Color range : Limited
    Color primaries : BT.709
    Transfer characteristics : BT.709
    Matrix coefficients : BT.709

    Audio
    ID : 3849 (0xF09)
    Menu ID : 857 (0x359)
    Format : AC-3
    Format/Info : Audio Coding 3
    Mode extension : CM (complete main)
    Format settings, Endianness : Big
    Codec ID : 6
    Duration : 3mn 1s
    Bit rate mode : Constant
    Bit rate : 192 Kbps
    Channel(s) : 2 channels
    Channel positions : Front: L R
    Sampling rate : 48.0 KHz
    Bit depth : 16 bits
    Compression mode : Lossy
    Stream size : 4.16 MiB (5%)
    Language : English
    ***Hidden content cannot be quoted.***

    Password:
    crusha[/QUOTE]
     
  10. jison

    jison Active Member

    Joined:
    Oct 14, 2015
    Messages:
    704
    Likes Received:
    31
    thanx
     
  11. NiceBoy

    NiceBoy Member

    Joined:
    May 20, 2016
    Messages:
    236
    Likes Received:
    5
    Many Thanks
     
  12. brownbradpitt613

    brownbradpitt613 Member

    Joined:
    Sep 3, 2017
    Messages:
    635
    Likes Received:
    7
    thanks!