Edwyn Collins - A Girl Like You (MTV PULSE HD-1080i-DD2.0-Olgold)

Discussion in 'MTV PULSE HD' started by DETOX, Feb 24, 2015.

  1. DETOX

    DETOX Well-Known Member V . I . P. Uploader

    Joined:
    Feb 20, 2014
    Messages:
    2,589
    Likes Received:
    12,149


    Edwyn Collins - A Girl Like You (MTV PULSE HD-1080i-DD2.0-Olgold)

    [​IMG]

    General
    ID : 16 (0x10)
    Complete name : Edwyn Collins - A Girl Like You (MTV PULSE HD-1080i-DD2.0-Olgold).ts
    Format : MPEG-TS
    File size : 153 MiB
    Duration : 3mn 54s
    Overall bit rate mode : Variable
    Overall bit rate : 5 470 Kbps

    Video
    ID : 210 (0xD2)
    Menu ID : 8002 (0x1F42)
    Format : AVC
    Format/Info : Advanced Video Codec
    Format profile : [email protected]
    Format settings, CABAC : Yes
    Format settings, ReFrames : 4 frames
    Format settings, GOP : M=8, N=24
    Codec ID : 27
    Duration : 3mn 53s
    Bit rate : 4 941 Kbps
    Width : 1 920 pixels
    Height : 1 080 pixels
    Display aspect ratio : 16:9
    Frame rate : 25.000 fps
    Standard : Component
    Color space : YUV
    Chroma subsampling : 4:2:0
    Bit depth : 8 bits
    Scan type : MBAFF
    Scan order : Top Field First
    Bits/(Pixel*Frame) : 0.095
    Stream size : 138 MiB (90%)
    Color primaries : BT.709
    Transfer characteristics : BT.709
    Matrix coefficients : BT.709
    Color range : Limited

    Audio
    ID : 221 (0xDD)
    Menu ID : 8002 (0x1F42)
    Format : AC-3
    Format/Info : Audio Coding 3
    Mode extension : CM (complete main)
    Format settings, Endianness : Big
    Codec ID : 6
    Duration : 3mn 53s
    Bit rate mode : Constant
    Bit rate : 256 Kbps
    Channel(s) : 2 channels
    Channel positions : Front: L R
    Sampling rate : 48.0 KHz
    Bit depth : 16 bits
    Compression mode : Lossy
    Delay relative to video : 112ms
    Stream size : 7.12 MiB (5%)
    Language : French
    Language, more info : Clean effects

    Credits to Olgold

    SERVER: MEGA / PASSWORD: DETOX

    Hidden Content:
    You must reply before you can see the hidden data contained here.
     
    rhea and CELOBRAZiL like this.
  2. rhea

    rhea Well-Known Member

    Joined:
    Jan 6, 2014
    Messages:
    5,193
    Likes Received:
    250
    thanks a lot
     
  3. quake2

    quake2 Active Member

    Joined:
    Oct 11, 2014
    Messages:
    769
    Likes Received:
    30
    ok thx..
     
  4. xaro

    xaro Member

    Joined:
    Jun 7, 2014
    Messages:
    183
    Likes Received:
    3
    Thank U
     
  5. lukierrywhere

    lukierrywhere Member

    Joined:
    May 1, 2015
    Messages:
    157
    Likes Received:
    1
  6. wwepan

    wwepan Member

    Joined:
    Oct 21, 2015
    Messages:
    34
    Likes Received:
    0
    Thank You
     
  7. Flaxdevil

    Flaxdevil Member

    Joined:
    May 25, 2014
    Messages:
    205
    Likes Received:
    6
    nice video
     
  8. Zeeh

    Zeeh Member

    Joined:
    Mar 20, 2015
    Messages:
    327
    Likes Received:
    4
    Thanks Looks great
     
  9. vaci

    vaci Member

    Joined:
    Jul 16, 2016
    Messages:
    65
    Likes Received:
    2
    thanks
     
  10. tapions

    tapions Active Member

    Joined:
    Aug 30, 2016
    Messages:
    746
    Likes Received:
    47
    gracias
     
  11. jms_salta

    jms_salta Member

    Joined:
    Nov 9, 2014
    Messages:
    33
    Likes Received:
    0
    Thank You
     
  12. revilo18

    revilo18 Well-Known Member

    Joined:
    May 26, 2016
    Messages:
    1,256
    Likes Received:
    51
    THANKKK