HDTV E! Special - Selena Gomez (recap) 1080i HDTV DD2.0 MPEG2-TrollHD

Discussion in 'Documentaries' started by Dfrazzer, Mar 21, 2016.

  1. AsyrafGrande

    AsyrafGrande Active Member

    Joined:
    May 25, 2015
    Messages:
    200
    Likes Received:
    33
    thank you
     
  2. ourlovexx

    ourlovexx Member

    Joined:
    Dec 9, 2015
    Messages:
    122
    Likes Received:
    6
  3. Blunder

    Blunder Member

    Joined:
    Mar 27, 2016
    Messages:
    333
    Likes Received:
    3
    thanks
     
  4. kidtoy12

    kidtoy12 Member

    Joined:
    Mar 3, 2016
    Messages:
    113
    Likes Received:
    2
    thansk so much
     
  5. Bouncer

    Bouncer Member

    Joined:
    Jan 5, 2016
    Messages:
    390
    Likes Received:
    7
    tks tks
     
  6. ramgelrogger

    ramgelrogger New Member

    Joined:
    Jan 4, 2017
    Messages:
    16
    Likes Received:
    0
  7. mileyfan

    mileyfan Member

    Joined:
    Mar 3, 2014
    Messages:
    50
    Likes Received:
    1
  8. Winterheart

    Winterheart Member

    Joined:
    Oct 2, 2015
    Messages:
    88
    Likes Received:
    2
  9. orgulo

    orgulo Member

    Joined:
    Jan 16, 2017
    Messages:
    455
    Likes Received:
    6
    thanks
     
  10. WictorAmbrosio

    WictorAmbrosio New Member

    Joined:
    Feb 24, 2017
    Messages:
    9
    Likes Received:
    0
  11. giga morane10

    giga morane10 New Member

    Joined:
    Dec 10, 2016
    Messages:
    29
    Likes Received:
    8
    juss

    Code:
    General
    ID : 1 (0x1)
    Complete name : D:\E! Special - Selena Gomez (recap) 1080i HDTV DD2.0 MPEG2-TrollHD.ts
    Format : MPEG-TS
    File size : 5.53 GiB
    Duration : 44mn 28s
    Overall bit rate mode : Variable
    Overall bit rate : 17.8 Mbps
    Law rating : TV-PG (L)
    
    Video
    ID : 536 (0x218)
    Menu ID : 1 (0x1)
    Format : MPEG Video
    Format version : Version 2
    Format profile : [email protected]
    Format settings, BVOP : Yes
    Format settings, Matrix : Custom
    Format settings, GOP : M=3, N=15
    Format settings, picture structure : Frame
    Codec ID : 2
    Duration : 44mn 28s
    Bit rate mode : Variable
    Bit rate : 16.5 Mbps
    Maximum bit rate : 18.0 Mbps
    Width : 1 920 pixels
    Height : 1 080 pixels
    Display aspect ratio : 16:9
    Frame rate : 29.970 fps
    Color space : YUV
    Chroma subsampling : 4:2:0
    Bit depth : 8 bits
    Scan type : Interlaced
    Scan order : Top Field First
    Compression mode : Lossy
    Bits/(Pixel*Frame) : 0.266
    Time code of first frame : 00:00:00;00
    Time code source : Group of pictures header
    GOP, Open/Closed : Open
    Stream size : 5.13 GiB (93%)
    
    Audio
    ID : 534 (0x216)
    Menu ID : 1 (0x1)
    Format : AC-3
    Format/Info : Audio Coding 3
    Mode extension : CM (complete main)
    Format settings, Endianness : Big
    Codec ID : 129
    Duration : 44mn 28s
    Bit rate mode : Constant
    Bit rate : 384 Kbps
    Channel(s) : 2 channels
    Channel positions : Front: L R
    Sampling rate : 48.0 KHz
    Compression mode : Lossy
    Delay relative to video : 14ms
    Stream size : 122 MiB (2%)
    Language : English
    
    Text #1
    ID : 536 (0x218)-CC1
    Menu ID : 1 (0x1)
    Format : EIA-608
    Muxing mode : A/53 / DTVCC Transport
    Muxing mode, more info : Muxed in Video #1
    Duration : 44mn 28s
    Bit rate mode : Constant
    Stream size : 0.00 Byte (0%)
    
    Text #2
    ID : 536 (0x218)-1
    Menu ID : 1 (0x1)
    Format : EIA-708
    Muxing mode : A/53 / DTVCC Transport
    Muxing mode, more info : Muxed in Video #1
    Duration : 44mn 28s
    Bit rate mode : Constant
    Stream size : 0.00 Byte (0%)
    
    ***Hidden content cannot be quoted.***

    Original capper: TrollHD[/QUOTE]