Dua Lipa - New Rules (1080p HD) [VEVO MP4 Rip]

Discussion in 'Music Videos' started by Samuel, Jul 8, 2017.

  1. Samuel

    Samuel Well-Known Member

    Joined:
    Apr 12, 2016
    Messages:
    1,312
    Likes Received:
    495
    [​IMG]
    ___________________________________________________________________________________________________________
    New Rules
    Dua Lipa

    ___________________________________________________________________________________________________________

    Video Info:

    Music Video Screenshots:
    [​IMG]

    Music Video Info:
    Code:
    General
    General
    Complete name                            : C:\Users\Samuel\Documents\New Rules.mp4
    Format                                   : MPEG-4
    Format profile                           : Base Media / Version 2
    Codec ID                                 : mp42 (mp42/mp41)
    File size                                : 276 MiB
    Duration                                 : 3 min 40 s
    Overall bit rate                         : 10.5 Mb/s
    Movie name                               : New Rules
    Performer                                : Dua Lipa
    Performer/Sorted by                      : Dua Lipa
    Genre                                    : Pop
    ContentType                              : Music Video
    Recorded date                            : UTC 2017-07-07 08:00:00
    Encoded date                             : UTC 2017-07-08 14:36:13
    Tagged date                              : UTC 2017-07-08 14:40:42
    Copyright                                : ℗ 2017 Dua Lipa Limited under exclusive license to Warner Music UK Limited
    Cover                                    : Yes
    Rating                                   : None
    ©TIM                                     : 00:00:00:00
    ©TSC                                     : 25
    ©TSZ                                     : 1
    Title/Sort                               : New Rules
    AlbumTitleID                             : 1031397873
    
    Video
    ID                                       : 1
    Format                                   : AVC
    Format/Info                              : Advanced Video Codec
    Format profile                           : Main@L4.1
    Format settings, CABAC                   : Yes
    Format settings, RefFrames               : 3 frames
    Format settings, GOP                     : M=4, N=25
    Codec ID                                 : avc1
    Codec ID/Info                            : Advanced Video Coding
    Duration                                 : 3 min 40 s
    Bit rate                                 : 10.2 Mb/s
    Width                                    : 1 920 pixels
    Height                                   : 1 080 pixels
    Display aspect ratio                     : 16:9
    Frame rate mode                          : Constant
    Frame rate                               : 25.000 FPS
    Standard                                 : PAL
    Color space                              : YUV
    Chroma subsampling                       : 4:2:0
    Bit depth                                : 8 bits
    Scan type                                : Progressive
    Bits/(Pixel*Frame)                       : 0.197
    Stream size                              : 268 MiB (97%)
    Language                                 : English
    Encoded date                             : UTC 2017-07-08 14:36:13
    Tagged date                              : UTC 2017-07-08 14:36:13
    Color range                              : Limited
    Color primaries                          : BT.709
    Transfer characteristics                 : BT.709
    Matrix coefficients                      : BT.709
    
    Audio
    ID                                       : 2
    Format                                   : AAC
    Format/Info                              : Advanced Audio Codec
    Format profile                           : LC
    Codec ID                                 : 40
    Duration                                 : 3 min 40 s
    Source duration                          : 3 min 40 s
    Bit rate mode                            : Constant
    Bit rate                                 : 317 kb/s
    Channel(s)                               : 2 channels
    Channel positions                        : Front: L R
    Sampling rate                            : 48.0 kHz
    Frame rate                               : 46.875 FPS (1024 SPF)
    Compression mode                         : Lossy
    Stream size                              : 8.33 MiB (3%)
    Source stream size                       : 8.33 MiB (3%)
    Language                                 : English
    Default                                  : Yes
    Alternate group                          : 1
    Encoded date                             : UTC 2017-07-08 14:36:13
    Tagged date                              : UTC 2017-07-08 14:36:13
    
    


    Download Link:
    Hidden Content:
    You must reply before you can see the hidden data contained here.
     
    alpha24, tp327, Duaz123 and 7 others like this.
  2. Loading...


  3. plwww

    plwww Active Member

    Joined:
    May 28, 2016
    Messages:
    663
    Likes Received:
    47
    Thank you so much :blackheart:
     
  4. nvp

    nvp Member

    Joined:
    Nov 20, 2016
    Messages:
    197
    Likes Received:
    0
    thanks dude
     
  5. Vjeans

    Vjeans Well-Known Member V . I . P.

    Joined:
    May 10, 2014
    Messages:
    1,308
    Likes Received:
    4,077
    Thank you!
     
  6. ManuelLopez5

    ManuelLopez5 Member

    Joined:
    Jun 7, 2014
    Messages:
    540
    Likes Received:
    20
    thank you :greedy:
     
  7. thisisthesanesofme

    thisisthesanesofme Member

    Joined:
    Aug 25, 2014
    Messages:
    102
    Likes Received:
    5
  8. jack_black

    jack_black Well-Known Member

    Joined:
    Feb 16, 2014
    Messages:
    1,035
    Likes Received:
    861
    Thank you!
     
  9. rhea

    rhea Well-Known Member

    Joined:
    Jan 6, 2014
    Messages:
    8,301
    Likes Received:
    1,190
    thanks
     
  10. LOAN_ST1

    LOAN_ST1 Active Member

    Joined:
    Dec 29, 2016
    Messages:
    136
    Likes Received:
    37
    thankksss
     
  11. Mikki91

    Mikki91 Member

    Joined:
    Oct 29, 2016
    Messages:
    404
    Likes Received:
    6
    Nice! :D
     
  12. luccasamora

    luccasamora Member

    Joined:
    May 27, 2017
    Messages:
    34
    Likes Received:
    4
    Great video :D
     
  13. submariner9728

    submariner9728 Well-Known Member

    Joined:
    Dec 26, 2014
    Messages:
    1,183
    Likes Received:
    33
  14. exterminador

    exterminador Well-Known Member

    Joined:
    Jul 3, 2016
    Messages:
    2,508
    Likes Received:
    212
  15. Alex17

    Alex17 Member

    Joined:
    Dec 28, 2016
    Messages:
    109
    Likes Received:
    6
    Thanks
     
  16. master444

    master444 Member

    Joined:
    Feb 27, 2017
    Messages:
    438
    Likes Received:
    10
    woooooowwwww
     
  17. leonardo

    leonardo Member

    Joined:
    May 9, 2014
    Messages:
    655
    Likes Received:
    6
    thank you
     
  18. Eddie Solo

    Eddie Solo Active Member

    Joined:
    Oct 16, 2013
    Messages:
    534
    Likes Received:
    27
    Thank you
     
  19. ianforcer

    ianforcer Active Member

    Joined:
    Feb 17, 2017
    Messages:
    395
    Likes Received:
    27
  20. gacb01

    gacb01 Member

    Joined:
    Sep 26, 2016
    Messages:
    180
    Likes Received:
    21
    THANK YOU
     
  21. BetaKsi

    BetaKsi Well-Known Member

    Joined:
    Oct 18, 2015
    Messages:
    2,214
    Likes Received:
    584
    Thank you))