HDTV Dua Lipa - IDGAF - The Voice (5-22-2018) 1080i

Discussion in 'HD Live Performances' started by DonWal, May 23, 2018.

  1. DonWal

    DonWal Well-Known Member Capper V . I . P.

    Joined:
    May 11, 2015
    Messages:
    1,161
    Likes Received:
    2,767
    Dua Lipa
    The Voice (May-22-2018)
    Song [IDGAF]

    MPEG-2 TS | 1080i | AC3 5.1 | 3mn 58s | 373 MB

    [​IMG] [​IMG] [​IMG] [​IMG] [​IMG] [​IMG]

    Hidden Content:
    You must reply before you can see the hidden data contained here.
     
  2. Loading...


  3. abcdefg

    abcdefg Active Member

    Joined:
    Feb 6, 2018
    Messages:
    195
    Likes Received:
    28
    thank you
     
  4. benja

    benja Well-Known Member

    Joined:
    Jan 8, 2014
    Messages:
    1,577
    Likes Received:
    103
    Thank you so much !!! :)
     
  5. Thassyo

    Thassyo Well-Known Member

    Joined:
    Oct 9, 2013
    Messages:
    2,872
    Likes Received:
    1,289
    Thanks!
     
  6. edgar

    edgar Well-Known Member V . I . P.

    Joined:
    Oct 12, 2013
    Messages:
    2,033
    Likes Received:
    2,045
    Thank you so much :love::love::love::love::love:
     
  7. CELOBRAZiL

    CELOBRAZiL Well-Known Member Capper V . I . P. Donor

    Joined:
    Oct 2, 2013
    Messages:
    5,561
    Likes Received:
    17,708
    Thank you so much! :love::love::love::super::super::super: :)
     
  8. CELOBRAZiL

    CELOBRAZiL Well-Known Member Capper V . I . P. Donor

    Joined:
    Oct 2, 2013
    Messages:
    5,561
    Likes Received:
    17,708
    Dua Lipa - IDGAF - The Voice USA S14E28 Finale (5-22-2018) NBC 1080i HDTV DD5.1 MPEG2-DonWal

    [​IMG]



    Format : MPEG-TS
    File size : 373 MiB
    Duration : 3 min 58 s
    Overall bit rate mode : Variable
    Overall bit rate : 13.1 Mb/s
    Movie name : The Voice
    Law rating : TV-PG (DL)

    Video
    ID : 586 (0x24A)
    Menu ID : 1 (0x1)
    Format : MPEG Video
    Format version : Version 2
    Format profile : Main@High
    Format settings : CustomMatrix / BVOP
    Format settings, BVOP : Yes
    Format settings, Matrix : Custom
    Format settings, GOP : Variable
    Format settings, picture structure : Frame
    Codec ID : 2
    Duration : 3 min 58 s
    Bit rate mode : Variable
    Bit rate : 12.1 Mb/s
    Maximum bit rate : 80.0 Mb/s
    Width : 1 920 pixels
    Height : 1 080 pixels
    Display aspect ratio : 16:9
    Frame rate : 29.970 (30000/1001) FPS
    Color space : YUV
    Chroma subsampling : 4:2:0
    Bit depth : 8 bits
    Scan type : Interlaced
    Scan order : Bottom Field First
    Compression mode : Lossy
    Bits/(Pixel*Frame) : 0.195
    Time code of first frame : 00:00:00;00
    Time code source : Group of pictures header
    GOP, Open/Closed : Closed
    Stream size : 344 MiB (92%)
    Color primaries : BT.709
    Transfer characteristics : BT.709
    Matrix coefficients : BT.709

    Audio
    ID : 584 (0x248)
    Menu ID : 1 (0x1)
    Format : AC-3
    Format/Info : Audio Coding 3
    Codec ID : 129
    Duration : 3 min 58 s
    Bit rate mode : Constant
    Bit rate : 384 kb/s
    Channel(s) : 6 channels
    Channel positions : Front: L C R, Side: L R, LFE
    Sampling rate : 48.0 kHz
    Frame rate : 31.250 FPS (1536 SPF)
    Bit depth : 16 bits
    Compression mode : Lossy
    Delay relative to video : 9 ms
    Stream size : 10.9 MiB (3%)
    Language : English
    Service kind : Complete Main

    Text #1
    ID : 586 (0x24A)-CC1
    Menu ID : 1 (0x1)
    Format : EIA-608
    Muxing mode : A/53 / DTVCC Transport
    Muxing mode, more info : Muxed in Video #1
    Duration : 3 min 58 s
    Bit rate mode : Constant
    Stream size : 0.00 Byte (0%)
    CaptionServiceName : CC1

    Text #2
    ID : 586 (0x24A)-CC3
    Menu ID : 1 (0x1)
    Format : EIA-608
    Muxing mode : A/53 / DTVCC Transport
    Muxing mode, more info : Muxed in Video #1
    Duration : 3 min 58 s
    Bit rate mode : Constant
    Stream size : 0.00 Byte (0%)
    CaptionServiceName : CC3

    Text #3
    ID : 586 (0x24A)-1
    Menu ID : 1 (0x1)
    Format : EIA-708
    Muxing mode : A/53 / DTVCC Transport
    Muxing mode, more info : Muxed in Video #1
    Duration : 3 min 58 s
    Bit rate mode : Constant
    Stream size : 0.00 Byte (0%)


    Link(s):
    Hidden Content:
    You must either reply or click 'Like' to see the hidden information contained here.
     
    Last edited: May 23, 2018
  9. baygonazo00

    baygonazo00 Member Donor

    Joined:
    Apr 14, 2018
    Messages:
    397
    Likes Received:
    24
    yassss
     
  10. majkimalek

    majkimalek Member

    Joined:
    Jun 12, 2016
    Messages:
    154
    Likes Received:
    18
  11. mewmwe

    mewmwe Active Member

    Joined:
    May 20, 2017
    Messages:
    755
    Likes Received:
    59
    THANKSS
     
  12. exterminador

    exterminador Well-Known Member

    Joined:
    Jul 3, 2016
    Messages:
    2,403
    Likes Received:
    208
  13. Mozzie

    Mozzie Member

    Joined:
    Nov 6, 2017
    Messages:
    192
    Likes Received:
    16
    thanks
     
  14. Mozzie

    Mozzie Member

    Joined:
    Nov 6, 2017
    Messages:
    192
    Likes Received:
    16
    thanks
     
  15. killers23

    killers23 Active Member

    Joined:
    Feb 27, 2015
    Messages:
    874
    Likes Received:
    98
  16. rond

    rond Member

    Joined:
    Mar 23, 2017
    Messages:
    104
    Likes Received:
    11
    thanks
     
  17. submariner9728

    submariner9728 Well-Known Member

    Joined:
    Dec 26, 2014
    Messages:
    1,139
    Likes Received:
    28
  18. Maura

    Maura Well-Known Member

    Joined:
    Apr 7, 2014
    Messages:
    3,139
    Likes Received:
    101
    thanks
     
  19. digimaze

    digimaze Well-Known Member

    Joined:
    Feb 11, 2015
    Messages:
    1,654
    Likes Received:
    110
  20. withcap

    withcap Well-Known Member

    Joined:
    Oct 29, 2013
    Messages:
    2,199
    Likes Received:
    193
    Thank you!
     
  21. LoveYouMusic

    LoveYouMusic Member

    Joined:
    Jul 4, 2015
    Messages:
    462
    Likes Received:
    16
    i wanna fuck