FEED Dua Lipa - Electricity - Dick Clark's New Year's Rockin' Eve 2019 NYC BACKHAUL 720p 14 Mbps MPA2.0

Discussion in 'HD Live Performances' started by CELOBRAZiL, Jan 10, 2019.

  1. CELOBRAZiL

    CELOBRAZiL Well-Known Member Capper V . I . P. Donor

    Joined:
    Oct 2, 2013
    Messages:
    6,577
    Likes Received:
    20,986
    Dua Lipa - Electricity - Dick Clark's New Year's Rockin' Eve 2019 NYC BACKHAUL 720p 14 Mbps MPA2.0 H.264-ALANiS

    [​IMG]



    Format : MPEG-TS
    File size : 401 MiB
    Duration : 4 min 10 s
    Overall bit rate mode : Variable
    Overall bit rate : 13.4 Mb/s

    Video
    ID : 513 (0x201)
    Menu ID : 1 (0x1)
    Format : AVC
    Format/Info : Advanced Video Codec
    Format profile : High@L4.1
    Format settings : CABAC / 3 Ref Frames
    Format settings, CABAC : Yes
    Format settings, RefFrames : 3 frames
    Format settings, GOP : M=3, N=15
    Codec ID : 27
    Duration : 4 min 10 s
    Bit rate mode : Constant
    Bit rate : 12.8 Mb/s
    Width : 1 280 pixels
    Height : 720 pixels
    Display aspect ratio : 16:9
    Frame rate : 59.940 (60000/1001) FPS
    Color space : YUV
    Chroma subsampling : 4:2:0
    Bit depth : 8 bits
    Scan type : Progressive
    Bits/(Pixel*Frame) : 0.232
    Stream size : 375 MiB (94%)
    Color range : Limited
    Color primaries : BT.709
    Transfer characteristics : BT.709
    Matrix coefficients : BT.709

    Audio
    ID : 514 (0x202)
    Menu ID : 1 (0x1)
    Format : MPEG Audio
    Format version : Version 1
    Format profile : Layer 2
    Format settings : Intensity Stereo + MS Stereo
    Codec ID : 3
    Duration : 4 min 10 s
    Bit rate mode : Constant
    Bit rate : 192 kb/s
    Channel(s) : 2 channels
    Sampling rate : 48.0 kHz
    Frame rate : 41.667 FPS (1152 SPF)
    Compression mode : Lossy
    Stream size : 5.73 MiB (1%)
    Language : English


    Link(s):
    Hidden Content:
    You must either reply or click 'Like' to see the hidden information contained here.
     
    Last edited: Jan 14, 2019
    bohumil, rkn9, Pavulon and 14 others like this.
  2. Loading...


  3. CELOBRAZiL

    CELOBRAZiL Well-Known Member Capper V . I . P. Donor

    Joined:
    Oct 2, 2013
    Messages:
    6,577
    Likes Received:
    20,986
    :love::love::love:

    I left only one audio track that contained sound....
     
  4. rhea

    rhea Well-Known Member

    Joined:
    Jan 6, 2014
    Messages:
    8,981
    Likes Received:
    1,375
    thank you so much
     
    CELOBRAZiL likes this.
  5. Bruno

    Bruno Well-Known Member

    Joined:
    Nov 3, 2013
    Messages:
    1,920
    Likes Received:
    151
    many thx
     
    CELOBRAZiL likes this.
  6. detroit1

    detroit1 Well-Known Member

    Joined:
    Jan 6, 2014
    Messages:
    3,429
    Likes Received:
    487
    thank you
     
    CELOBRAZiL likes this.
  7. withcap

    withcap Well-Known Member

    Joined:
    Oct 29, 2013
    Messages:
    2,536
    Likes Received:
    311
    Thank you!
     
    CELOBRAZiL likes this.
  8. Dream66

    Dream66 Active Member

    Joined:
    Jan 24, 2016
    Messages:
    814
    Likes Received:
    176
    Thanks! :)
     
    Last edited: Jan 11, 2019
    CELOBRAZiL likes this.
  9. edgar

    edgar Well-Known Member V . I . P.

    Joined:
    Oct 12, 2013
    Messages:
    2,231
    Likes Received:
    2,242
    Thank you so so much:love::love::love::love::love:
     
    CELOBRAZiL likes this.
  10. GABSEDP

    GABSEDP @gabsedp

    Joined:
    Apr 16, 2014
    Messages:
    1,146
    Likes Received:
    194
    thanks
     
    CELOBRAZiL likes this.
  11. exterminador

    exterminador Well-Known Member

    Joined:
    Jul 3, 2016
    Messages:
    2,724
    Likes Received:
    239
    Thanks!
     
    CELOBRAZiL likes this.
  12. Wimpy2

    Wimpy2 Active Member

    Joined:
    Jan 21, 2014
    Messages:
    804
    Likes Received:
    42
    thanks
     
    CELOBRAZiL likes this.
  13. digimaze

    digimaze Well-Known Member

    Joined:
    Feb 11, 2015
    Messages:
    1,976
    Likes Received:
    138
    thanks
     
    CELOBRAZiL likes this.
  14. CELOBRAZiL

    CELOBRAZiL Well-Known Member Capper V . I . P. Donor

    Joined:
    Oct 2, 2013
    Messages:
    6,577
    Likes Received:
    20,986
    Added mega link! :)
     
  15. CELOBRAZiL

    CELOBRAZiL Well-Known Member Capper V . I . P. Donor

    Joined:
    Oct 2, 2013
    Messages:
    6,577
    Likes Received:
    20,986
    Added google drive link! :)
     
  16. stef5498

    stef5498 Member

    Joined:
    Jun 21, 2016
    Messages:
    201
    Likes Received:
    5
    Thanks !
     
    CELOBRAZiL likes this.
  17. Eddie Solo

    Eddie Solo Active Member

    Joined:
    Oct 16, 2013
    Messages:
    588
    Likes Received:
    29
    thank you
     
    CELOBRAZiL likes this.
  18. hackademic

    hackademic Member

    Joined:
    Jan 29, 2014
    Messages:
    125
    Likes Received:
    18
    Thanks a lot!
     
    CELOBRAZiL likes this.
  19. eykhilde

    eykhilde Active Member

    Joined:
    Oct 18, 2015
    Messages:
    398
    Likes Received:
    38
    Thanks for Dua
     
    CELOBRAZiL likes this.
  20. klaus

    klaus Well-Known Member

    Joined:
    Sep 11, 2014
    Messages:
    1,417
    Likes Received:
    38
    thanks
     
    CELOBRAZiL likes this.