FEED Dua Lipa - Don't Start Now,Festival di Sanremo 2020,8 feb(FEED-1080i-MPA2.0-@rt-v-k)-HDMania

Discussion in 'HD Live Performances' started by art-v-k, Feb 14, 2020.

  1. art-v-k

    art-v-k Well-Known Member Capper V . I . P. Uploader

    Joined:
    Nov 1, 2013
    Messages:
    366
    Likes Received:
    19,055
    Dua Lipa - Don't Start Now,Festival di Sanremo 2020,8 feb(FEED-1080i-MPA2.0-@rt-v-k)-HDMania

    [​IMG] [​IMG] [​IMG]

    [​IMG] [​IMG] [​IMG]


    Format : MPEG-TS
    File size : 805 MiB
    Duration : 3 min 48 s
    Overall bit rate mode : Variable
    Overall bit rate : 29.6 Mb/s

    Video
    ID : 512 (0x200)
    Menu ID : 1 (0x1)
    Format : AVC
    Format/Info : Advanced Video Codec
    Format profile : Main@L4.1
    Format settings : 2 Ref Frames
    Format settings, CABAC : No
    Format settings, Reference frames : 2 frames
    Format settings, GOP : M=3, N=12
    Codec ID : 27
    Duration : 3 min 48 s
    Bit rate mode : Constant
    Bit rate : 25.8 Mb/s
    Width : 1 920 pixels
    Height : 1 080 pixels
    Display aspect ratio : 16:9
    Frame rate : 25.000 FPS
    Color space : YUV
    Chroma subsampling : 4:2:0
    Bit depth : 8 bits
    Scan type : Interlaced
    Scan type, store method : Separated fields
    Scan order : Top Field First
    Bits/(Pixel*Frame) : 0.497
    Stream size : 681 MiB (85%)
    Color range : Limited
    Color primaries : BT.709
    Transfer characteristics : BT.709
    Matrix coefficients : BT.709

    Audio #1
    ID : 4111 (0x100F)
    Menu ID : 1 (0x1)
    Format : MPEG Audio
    Format version : Version 1
    Format profile : Layer 2
    Codec ID : 3
    Duration : 3 min 48 s
    Bit rate mode : Constant
    Bit rate : 256 kb/s
    Channel(s) : 2 channels
    Sampling rate : 48.0 kHz
    Frame rate : 41.667 FPS (1152 SPF)
    Compression mode : Lossy
    Delay relative to video : 31 ms
    Stream size : 6.96 MiB (1%)
    Language : English

    Audio #2
    ID : 4112 (0x1010)
    Menu ID : 1 (0x1)
    Format : MPEG Audio
    Format version : Version 1
    Format profile : Layer 2
    Codec ID : 3
    Duration : 3 min 48 s
    Bit rate mode : Constant
    Bit rate : 256 kb/s
    Channel(s) : 2 channels
    Sampling rate : 48.0 kHz
    Frame rate : 41.667 FPS (1152 SPF)
    Compression mode : Lossy
    Delay relative to video : 39 ms
    Stream size : 6.96 MiB (1%)
    Language : Spanish

    Audio #3
    ID : 4113 (0x1011)
    Menu ID : 1 (0x1)
    Format : PCM
    Format settings : Little
    Muxing mode : SMPTE ST 302
    Codec ID : 6
    Duration : 3 min 47 s
    Bit rate mode : Constant
    Bit rate : 1 920 kb/s
    Encoded bit rate : 2 304 kb/s
    Channel(s) : 2 channels
    Sampling rate : 48.0 kHz
    Bit depth : 20 bits
    Delay relative to video : 20 ms
    Stream size : 52.2 MiB (6%)
    Language : German

    Audio #4
    ID : 4114 (0x1012)
    Menu ID : 1 (0x1)
    Format : MPEG Audio
    Format version : Version 1
    Format profile : Layer 2
    Codec ID : 3
    Duration : 3 min 48 s
    Bit rate mode : Constant
    Bit rate : 256 kb/s
    Channel(s) : 2 channels
    Sampling rate : 48.0 kHz
    Frame rate : 41.667 FPS (1152 SPF)
    Compression mode : Lossy
    Delay relative to video : 11 ms
    Stream size : 6.96 MiB (1%)
    Language : French

    Menu
    ID : 257 (0x101)
    Menu ID : 1 (0x1)
    Duration : 3 min 48 s
    List : 512 (0x200) (AVC) / 4111 (0x100F) (MPEG Audio, English) / 4112 (0x1010) (MPEG Audio, Spanish) / 4113 (0x1011) (PCM, German) / 4114 (0x1012) (MPEG Audio, French)
    Language : / English / Spanish / German / French
    Maximum bit rate : 3392800

    ~~~~~~~~~~~~~~~
    Hidden Content:
    You must either reply or click 'Like' to see the hidden information contained here.
     
    larryxd, vborgof, Rock600 and 43 others like this.
  2. Loading...


  3. edgar

    edgar Well-Known Member

    Joined:
    Oct 12, 2013
    Messages:
    2,703
    Likes Received:
    2,757
    OMG Thank you so so much art-v-k :love::love::love::love::love::love::love::love:
     
  4. Hyrus

    Hyrus Arianator / Selenator / Victorian / Saxobeat / LBS Donor

    Joined:
    Feb 9, 2015
    Messages:
    1,560
    Likes Received:
    1,657
    Thanks for Dua :happy::)
     
  5. CELOBRAZiL

    CELOBRAZiL Well-Known Member Capper V . I . P. Donor

    Joined:
    Oct 2, 2013
    Messages:
    8,155
    Likes Received:
    28,658
    Thank you so much my friend! I love her! :)
     
  6. azamusic

    azamusic Well-Known Member Capper

    Joined:
    Dec 6, 2013
    Messages:
    1,253
    Likes Received:
    445
    hank you
     
  7. detroit1

    detroit1 Well-Known Member

    Joined:
    Jan 6, 2014
    Messages:
    4,000
    Likes Received:
    647
    thank you
     
  8. dgnio

    dgnio Well-Known Member Capper Uploader

    Joined:
    Jul 7, 2014
    Messages:
    2,131
    Likes Received:
    735
    thank you very much!
     
  9. lalololo

    lalololo Member

    Joined:
    Feb 18, 2014
    Messages:
    338
    Likes Received:
    10
    DUA LIPA!!!!!!!!!
     
  10. Dream66

    Dream66 Well-Known Member

    Joined:
    Jan 24, 2016
    Messages:
    1,082
    Likes Received:
    303
    Thanks :)
     
  11. astra1234

    astra1234 Active Member

    Joined:
    Jul 1, 2016
    Messages:
    309
    Likes Received:
    42
    thanks
     
  12. withcap

    withcap Well-Known Member

    Joined:
    Oct 29, 2013
    Messages:
    3,018
    Likes Received:
    502
    Thank you!!!
     
  13. multimediafm

    multimediafm Well-Known Member Donor

    Joined:
    Mar 27, 2014
    Messages:
    15,994
    Likes Received:
    1,475
  14. GABSEDP

    GABSEDP @gabsedp

    Joined:
    Apr 16, 2014
    Messages:
    1,548
    Likes Received:
    231
    thanks *-*
     
  15. submariner9728

    submariner9728 Well-Known Member

    Joined:
    Dec 26, 2014
    Messages:
    1,533
    Likes Received:
    60
  16. Jesus Miguel Rivero

    Jesus Miguel Rivero Well-Known Member

    Joined:
    Jul 9, 2015
    Messages:
    2,297
    Likes Received:
    93
    I love Dua! Thanks :D
     
  17. Gizmo234

    Gizmo234 Active Member

    Joined:
    Oct 21, 2015
    Messages:
    478
    Likes Received:
    40
    thank you
     
  18. manhunter

    manhunter Active Member

    Joined:
    Jun 8, 2016
    Messages:
    570
    Likes Received:
    65
    THANK YOU!!!
     
  19. eykhilde

    eykhilde Active Member

    Joined:
    Oct 18, 2015
    Messages:
    577
    Likes Received:
    65
    Thanks for Dua
     
  20. stel883

    stel883 Active Member

    Joined:
    Jan 27, 2018
    Messages:
    544
    Likes Received:
    162
    thanks, for sharing!!
     
  21. Bruno

    Bruno Well-Known Member

    Joined:
    Nov 3, 2013
    Messages:
    2,396
    Likes Received:
    216
    thank you so mutch