HDTV Dua Lipa - Don't Start Now [EMAs 2019] (MTVHD-BR-AC3-1080i).-Crusha.ts

Discussion in 'HD Live Performances' started by Crusha, Nov 4, 2019.

  1. Eddie Solo

    Eddie Solo Active Member

    Joined:
    Oct 16, 2013
    Messages:
    749
    Likes Received:
    37
    Thank You
     
  2. rikimiki12

    rikimiki12 New Member

    Joined:
    Jan 16, 2016
    Messages:
    20
    Likes Received:
    0
    thanks!
     
  3. exterminador

    exterminador Well-Known Member

    Joined:
    Jul 3, 2016
    Messages:
    3,085
    Likes Received:
    295
  4. Vjvich

    Vjvich New Member

    Joined:
    May 23, 2016
    Messages:
    28
    Likes Received:
    0
    thankssss
     
  5. martin98

    martin98 Member

    Joined:
    Nov 11, 2016
    Messages:
    615
    Likes Received:
    15
    thanks
     
  6. Chuck

    Chuck New Member

    Joined:
    Jul 27, 2019
    Messages:
    27
    Likes Received:
    0
    Thank you very much!
     
  7. RIKI23

    RIKI23 Active Member

    Joined:
    Oct 13, 2013
    Messages:
    586
    Likes Received:
    32
    Thanks
     
  8. LARZZ29

    LARZZ29 Member

    Joined:
    Sep 6, 2019
    Messages:
    60
    Likes Received:
    4
    THANK YOU
     
  9. brandonc991

    brandonc991 New Member

    Joined:
    Aug 11, 2017
    Messages:
    24
    Likes Received:
    2
  10. mkygod

    mkygod Active Member

    Joined:
    Apr 17, 2018
    Messages:
    69
    Likes Received:
    101
    ooh thx
     
  11. batuu

    batuu Member

    Joined:
    Apr 15, 2019
    Messages:
    121
    Likes Received:
    10
    thanks
     
  12. marco_rojas

    marco_rojas New Member

    Joined:
    Jan 27, 2019
    Messages:
    29
    Likes Received:
    3
    TNKS[​IMG]

    General
    ID : 1 (0x1)
    Complete name : Dua Lipa - Don't Start Now [EMAs 2019] (MTVHD-BR-AC3-1080i).-Crusha.ts
    Format : MPEG-TS
    File size : 167 MiB
    Duration : 3 min 45 s
    Overall bit rate mode : Variable
    Overall bit rate : 6 213 kb/s

    Video
    ID : 2189 (0x88D)
    Menu ID : 1 (0x1)
    Format : AVC
    Format/Info : Advanced Video Codec
    Format profile : High@L4
    Format settings, CABAC : Yes
    Format settings, RefFrames : 4 frames
    Format settings, GOP : M=8, N=32
    Codec ID : 27
    Duration : 3 min 45 s
    Bit rate : 5 712 kb/s
    Width : 1 920 pixels
    Height : 1 080 pixels
    Display aspect ratio : 16:9
    Frame rate : 29.970 (30000/1001) FPS
    Standard : Component
    Color space : YUV
    Chroma subsampling : 4:2:0
    Bit depth : 8 bits
    Scan type : MBAFF
    Scan type, store method : Interleaved fields
    Scan order : Top Field First
    Bits/(Pixel*Frame) : 0.092
    Stream size : 153 MiB (92%)
    Color range : Limited
    Color primaries : BT.709
    Transfer characteristics : BT.709
    Matrix coefficients : BT.709

    Audio
    ID : 3484 (0xD9C)
    Menu ID : 1 (0x1)
    Format : AC-3
    Format/Info : Audio Coding 3
    Format settings, Endianness : Big
    Codec ID : 6
    Duration : 3 min 45 s
    Bit rate mode : Constant
    Bit rate : 192 kb/s
    Channel(s) : 2 channels
    Channel positions : Front: L R
    Sampling rate : 48.0 kHz
    Frame rate : 31.250 FPS (1536 SPF)
    Bit depth : 16 bits
    Compression mode : Lossy
    Delay relative to video : -134 ms
    Stream size : 5.15 MiB (3%)
    Language : English
    Service kind : Complete Main

    ***Hidden content cannot be quoted.***

    Password: crusha[/QUOTE]
     
  13. docamazing

    docamazing New Member

    Joined:
    Nov 18, 2019
    Messages:
    7
    Likes Received:
    0
    h;jfgkhj
     
  14. sideshow_bob

    sideshow_bob Well-Known Member

    Joined:
    Dec 20, 2013
    Messages:
    3,532
    Likes Received:
    436
    Thank you!
     
  15. brunomqslima

    brunomqslima Member

    Joined:
    Oct 20, 2019
    Messages:
    84
    Likes Received:
    1