Dua Lipa - Break My Heart MULTISHOWHD 1080i HDTV DD5.1 H.264 CELOBRAZiL-HDMania

Discussion in 'MULTISHOW HD' started by CELOBRAZiL, Apr 10, 2020.

  1. CELOBRAZiL

    CELOBRAZiL Well-Known Member Capper V . I . P. Donor

    Joined:
    Oct 2, 2013
    Messages:
    8,636
    Likes Received:
    30,843
    Dua Lipa - Break My Heart MULTISHOWHD 1080i HDTV DD5.1 H.264 CELOBRAZiL-HDMania

    [​IMG]



    Format : MPEG-TS
    File size : 366 MiB
    Duration : 3 min 45 s
    Overall bit rate mode : Variable
    Overall bit rate : 13.6 Mb/s

    Video
    ID : 1328 (0x530)
    Menu ID : 542 (0x21E)
    Format : AVC
    Format/Info : Advanced Video Codec
    Format profile : High@L4
    Format settings : CABAC / 4 Ref Frames
    Format settings, CABAC : Yes
    Format settings, Reference frames : 4 frames
    Codec ID : 27
    Duration : 3 min 45 s
    Bit rate : 12.3 Mb/s
    Width : 1 920 pixels
    Height : 1 080 pixels
    Display aspect ratio : 16:9
    Frame rate : 29.970 (30000/1001) FPS
    Color space : YUV
    Chroma subsampling : 4:2:0
    Bit depth : 8 bits
    Scan type : MBAFF
    Scan type, store method : Interleaved fields
    Scan order : Top Field First
    Bits/(Pixel*Frame) : 0.199
    Stream size : 332 MiB (91%)

    Audio #1
    ID : 1329 (0x531)
    Menu ID : 542 (0x21E)
    Format : AC-3
    Format/Info : Audio Coding 3
    Commercial name : Dolby Digital
    Codec ID : 129
    Duration : 3 min 45 s
    Bit rate mode : Constant
    Bit rate : 384 kb/s
    Channel(s) : 6 channels
    Channel layout : L R C LFE Ls Rs
    Sampling rate : 48.0 kHz
    Frame rate : 31.250 FPS (1536 SPF)
    Compression mode : Lossy
    Stream size : 10.3 MiB (3%)
    Language : Portuguese
    Service kind : Complete Main

    Audio #2
    ID : 1330 (0x532)
    Menu ID : 542 (0x21E)
    Format : MPEG Audio
    Format version : Version 1
    Format profile : Layer 2
    Format settings : Joint stereo / Intensity Stereo + MS Stereo
    Codec ID : 3
    Duration : 3 min 45 s
    Bit rate mode : Constant
    Bit rate : 192 kb/s
    Channel(s) : 2 channels
    Sampling rate : 48.0 kHz
    Frame rate : 41.667 FPS (1152 SPF)
    Compression mode : Lossy
    Stream size : 5.17 MiB (1%)
    Language : English


    Link(s):
    Hidden Content:
    You must either reply or click 'Like' to see the hidden information contained here.
     
    fotografo, rhea, rcj and 2 others like this.
  2. Loading...


  3. CELOBRAZiL

    CELOBRAZiL Well-Known Member Capper V . I . P. Donor

    Joined:
    Oct 2, 2013
    Messages:
    8,636
    Likes Received:
    30,843
    :love::love::love:

    I love so much Dua Lipa! :p

    Added GOOGLE DRIVE link + MIRRORs! :)
     
  4. rvden

    rvden Well-Known Member

    Joined:
    Apr 9, 2017
    Messages:
    904
    Likes Received:
    672
    Thank you!
     
    CELOBRAZiL likes this.
  5. rhea

    rhea Well-Known Member

    Joined:
    Jan 6, 2014
    Messages:
    10,696
    Likes Received:
    1,997
    thank you so much! :)
     
    CELOBRAZiL likes this.
  6. manhunter

    manhunter Active Member

    Joined:
    Jun 8, 2016
    Messages:
    931
    Likes Received:
    135
    THANK YOU!!!
     
    CELOBRAZiL likes this.
  7. Danielcha

    Danielcha Active Member

    Joined:
    Sep 20, 2014
    Messages:
    764
    Likes Received:
    66
    mito obrigado
     
    CELOBRAZiL likes this.
  8. ulygatore

    ulygatore Well-Known Member

    Joined:
    Jun 29, 2017
    Messages:
    2,975
    Likes Received:
    145
    thanks
     
    CELOBRAZiL likes this.
  9. sebascasilda

    sebascasilda Active Member

    Joined:
    May 17, 2018
    Messages:
    227
    Likes Received:
    45
    la oreja de van gogh abrazame puedes subirlo?
     
  10. dgnio

    dgnio Well-Known Member Capper Uploader

    Joined:
    Jul 7, 2014
    Messages:
    2,155
    Likes Received:
    754
    thank you very much!
     
    CELOBRAZiL likes this.