Drake - Hotline Bling (VEVOtv HDTV-1080i 26Mbps) Danixat-HDMania

Discussion in 'VEVOtv' started by danixat, Mar 25, 2016.

  1. danixat

    danixat Katycat ^-^ Capper V . I . P. Uploader Archiver Donor

    Joined:
    Feb 23, 2014
    Messages:
    1,302
    Likes Received:
    10,151
    [​IMG]
    [​IMG]
    [​IMG]
    [​IMG]
    Code:
    General
    ID                             : 1 (0x1)
    Complete name                  : K:\Drake - Hotline Bling  (VEVOtv HDTV-1080i 26Mbps) Danixat-HDMania.ts
    Format                         : MPEG-TS
    File size                      : 927 MiB
    Duration                       : 4mn 56s
    Overall bit rate mode          : Variable
    Overall bit rate               : 26.3 Mbps
    
    Video
    ID                             : 100 (0x64)
    Menu ID                        : 2 (0x2)
    Format                         : AVC
    Format/Info                    : Advanced Video Codec
    Format profile                 : High@L4.0
    Format settings, CABAC         : Yes
    Format settings, ReFrames      : 2 frames
    Codec ID                       : 27
    Duration                       : 4mn 56s
    Bit rate mode                  : Variable
    Bit rate                       : 24.7 Mbps
    Maximum bit rate               : 30.0 Mbps
    Width                          : 1 920 pixels
    Height                         : 1 080 pixels
    Display aspect ratio           : 16:9
    Frame rate                     : 25.000 fps
    Color space                    : YUV
    Chroma subsampling             : 4:2:0
    Bit depth                      : 8 bits
    Scan type                      : Interlaced
    Bits/(Pixel*Frame)             : 0.477
    Stream size                    : 874 MiB (94%)
    
    Audio
    ID                             : 101 (0x65)
    Menu ID                        : 2 (0x2)
    Format                         : AAC
    Format/Info                    : Advanced Audio Codec
    Format version                 : Version 4
    Format profile                 : LC
    Muxing mode                    : ADTS
    Codec ID                       : 15
    Duration                       : 4mn 56s
    Bit rate mode                  : Variable
    Bit rate                       : 218 Kbps
    Channel(s)                     : 2 channels
    Channel positions              : Front: L R
    Sampling rate                  : 48.0 KHz
    Compression mode               : Lossy
    Delay relative to video        : -448ms
    Stream size                    : 7.72 MiB (1%)

    [​IMG]

    Download:
    Hidden Content:
    You must either reply or click 'Like' to see the hidden information contained here.
    CAPPED BY ME :victory:
     
  2. Loading...


  3. dgnio

    dgnio Well-Known Member Capper Uploader

    Joined:
    Jul 7, 2014
    Messages:
    2,144
    Likes Received:
    744
    thanks very very much!
     
  4. frank69

    frank69 New Member

    Joined:
    May 13, 2016
    Messages:
    25
    Likes Received:
    0
    thanks very very much!
     
  5. erroljr1977

    erroljr1977 Active Member

    Joined:
    Apr 18, 2017
    Messages:
    545
    Likes Received:
    28
    seeeru
     
  6. music videos

    music videos Well-Known Member V . I . P.

    Joined:
    Jul 5, 2016
    Messages:
    2,263
    Likes Received:
    3,358
  7. fxckpark

    fxckpark Member

    Joined:
    Mar 22, 2016
    Messages:
    214
    Likes Received:
    2
    love it x
     
  8. ivanbrankovic

    ivanbrankovic New Member

    Joined:
    Dec 25, 2016
    Messages:
    11
    Likes Received:
    0
    This is insane quality! thx!
     
  9. Tommyboy

    Tommyboy Well-Known Member

    Joined:
    Oct 23, 2016
    Messages:
    1,347
    Likes Received:
    55
    T.Hanks
     
  10. funkface

    funkface Member

    Joined:
    Jul 22, 2017
    Messages:
    92
    Likes Received:
    4
    thank you
     
  11. marx_elcometa

    marx_elcometa Member

    Joined:
    Mar 5, 2019
    Messages:
    962
    Likes Received:
    6
  12. Hello123456789

    Hello123456789 Member

    Joined:
    Jan 9, 2019
    Messages:
    284
    Likes Received:
    12
  13. Trancetastic

    Trancetastic Member

    Joined:
    Apr 23, 2020
    Messages:
    71
    Likes Received:
    3
    Thank you!