DragonForce - Through The Fire And Flames (LPCM Promo 480i)

Discussion in 'SD' started by Rey619Spear, May 14, 2019.

  1. Rey619Spear

    Rey619Spear [Title Pending]

    Joined:
    Aug 18, 2017
    Messages:
    163
    Likes Received:
    139
    [​IMG]
    Code:
    General
    Format                         : MPEG-PS
    File size                      : 263 MiB
    Duration                       : 5 min 0 s
    Overall bit rate mode          : Variable
    Overall bit rate               : 7 343 kb/s
    Writing library                : encoded by TMPGEnc 3.0 XPress Version. 3.0.4.24
    
    Video
    ID                             : 224 (0xE0)
    Format                         : MPEG Video
    Format version                 : Version 2
    Format profile                 : Main@Main
    Format settings, BVOP          : Yes
    Format settings, Matrix        : Custom
    Format settings, GOP           : M=3, N=16
    Format settings, picture struc : Frame
    Duration                       : 5 min 0 s
    Bit rate mode                  : Variable
    Bit rate                       : 5 661 kb/s
    Maximum bit rate               : 8 000 kb/s
    Width                          : 720 pixels
    Height                         : 480 pixels
    Display aspect ratio           : 4:3
    Frame rate                     : 29.970 (30000/1001) FPS
    Standard                       : NTSC
    Color space                    : YUV
    Chroma subsampling             : 4:2:0
    Bit depth                      : 8 bits
    Scan type                      : Interlaced
    Scan order                     : Top Field First
    Compression mode               : Lossy
    Bits/(Pixel*Frame)             : 0.547
    Time code of first frame       : 00:00:00:00
    Time code source               : Group of pictures header
    GOP, Open/Closed               : Closed
    Stream size                    : 203 MiB (77%)
    Writing library                : TMPGEnc 3.0 XPress Version. 3.0.4.24
    Color primaries                : BT.601 PAL
    Transfer characteristics       : BT.470 System B, BT.470 System G
    Matrix coefficients            : FCC 73.682
    
    Audio
    ID                             : 189 (0xBD)-160 (0xA0)
    Format                         : PCM
    Format settings, Endianness    : Big
    Format settings, Sign          : Signed
    Muxing mode                    : DVD-Video
    Duration                       : 5 min 0 s
    Bit rate mode                  : Constant
    Bit rate                       : 1 536 kb/s
    Channel(s)                     : 2 channels
    Sampling rate                  : 48.0 kHz
    Bit depth                      : 16 bits
    Stream size                    : 55.0 MiB (21%)
    
    Menu
    Info:
    Video: MPEG2 Video 720x480 (4:3) 29.97fps
    Audio: LPCM 48000Hz stereo 1536kbps

    Hidden Content:
    You must either reply or click 'Like' to see the hidden information contained here.
     
    Brungor likes this.
  2. Loading...