Dove Cameron - Better In Stereo (DISNEYHD-720p-DD5.1-TrollHD)

Discussion in 'DISNEY HD' started by Darkangel, Aug 9, 2014.

  1. Darkangel

    Darkangel Taylor Fan Staff Member Super Moderator Capper V . I . P. Donor

    Joined:
    Oct 7, 2013
    Messages:
    2,425
    Likes Received:
    21,142
    [​IMG]
    Code:
    Complete name  : Dove Cameron - Better In Stereo - Music Video 2013-10-27 720p HDTV DD5.1 MPEG2-TrollHD.ts
    Format  : MPEG-TS
    File size  : 333 MiB
    Duration  : 3mn 7s
    Overall bit rate mode  : Variable
    Overall bit rate  : 14.9 Mbps
    Law rating  : TV-G
    
    Video
    ID  : 525 (0x20D)
    Menu ID  : 1 (0x1)
    Format  : MPEG Video
    Commercial name  : HDV 720p
    Format version  : Version 2
    Format profile  : [email protected]
    Format settings, BVOP  : No
    Format settings, Matrix  : Custom
    Format settings, GOP  : Variable
    Codec ID  : 2
    Duration  : 3mn 7s
    Bit rate mode  : Variable
    Bit rate  : 13.6 Mbps
    Maximum bit rate  : 14.7 Mbps
    Width  : 1 280 pixels
    Height  : 720 pixels
    Display aspect ratio  : 16:9
    Frame rate  : 59.940 fps
    Color space  : YUV
    Chroma subsampling  : 4:2:0
    Bit depth  : 8 bits
    Scan type  : Progressive
    Compression mode  : Lossy
    Bits/(Pixel*Frame)  : 0.246
    Time code of first frame  : 00:00:00;00
    Time code source  : Group of pictures header
    Stream size  : 303 MiB (91%)
    
    Audio #1
    ID  : 523 (0x20B)
    Menu ID  : 1 (0x1)
    Format  : AC-3
    Format/Info  : Audio Coding 3
    Mode extension  : CM (complete main)
    Format settings, Endianness  : Big
    Codec ID  : 129
    Duration  : 3mn 7s
    Bit rate mode  : Constant
    Bit rate  : 384 Kbps
    Channel(s)  : 6 channels
    Channel positions  : Front: L C R, Side: L R, LFE
    Sampling rate  : 48.0 KHz
    Bit depth  : 16 bits
    Compression mode  : Lossy
    Delay relative to video  : 19ms
    Stream size  : 8.56 MiB (3%)
    Language  : English
    
    Audio #2
    ID  : 524 (0x20C)
    Menu ID  : 1 (0x1)
    Format  : AC-3
    Format/Info  : Audio Coding 3
    Mode extension  : CM (complete main)
    Format settings, Endianness  : Big
    Codec ID  : 129
    Duration  : 3mn 7s
    Bit rate mode  : Constant
    Bit rate  : 192 Kbps
    Channel(s)  : 2 channels
    Channel positions  : Front: L R
    Sampling rate  : 48.0 KHz
    Bit depth  : 16 bits
    Compression mode  : Lossy
    Delay relative to video  : 25ms
    Stream size  : 4.28 MiB (1%)
    Language  : Spanish
    
    Text #1
    ID  : 525 (0x20D)-1
    Menu ID  : 1 (0x1)
    Format  : EIA-708
    Muxing mode  : A/53 / DTVCC Transport
    Muxing mode, more info  : Muxed in Video #1
    Duration  : 3mn 7s
    Bit rate mode  : Constant
    Stream size  : 0.00 Byte (0%)
    
    Text #2
    ID  : 525 (0x20D)-2
    Menu ID  : 1 (0x1)
    Format  : EIA-708
    Muxing mode  : A/53 / DTVCC Transport
    Muxing mode, more info  : Muxed in Video #1
    Duration  : 3mn 7s
    Bit rate mode  : Constant
    Stream size  : 0.00 Byte (0%)
    Hidden Content:
    You must either reply or click 'Like' to see the hidden information contained here.
     
    crisxcx, Vinny, nightowl32 and 5 others like this.
  2. Loading...


  3. Ank-hell

    Ank-hell nɪhɪl V . I . P.

    Joined:
    Dec 21, 2013
    Messages:
    1,478
    Likes Received:
    6,033
    Thanks
     
  4. alex

    alex Well-Known Member

    Joined:
    Nov 21, 2013
    Messages:
    4,552
    Likes Received:
    358
    thanks:victory:
     
  5. rhea

    rhea Well-Known Member

    Joined:
    Jan 6, 2014
    Messages:
    6,660
    Likes Received:
    690
    thank you so much :)
     
  6. Zatimi

    Zatimi Active Member

    Joined:
    Aug 27, 2014
    Messages:
    720
    Likes Received:
    132
    thanks a lot
     
  7. Eddie Solo

    Eddie Solo Member

    Joined:
    Oct 16, 2013
    Messages:
    393
    Likes Received:
    17
    thank you
     
  8. Trop1cal

    Trop1cal Member

    Joined:
    Feb 5, 2015
    Messages:
    551
    Likes Received:
    12
    Thank you very much.
     
  9. edgar

    edgar Well-Known Member V . I . P.

    Joined:
    Oct 12, 2013
    Messages:
    1,704
    Likes Received:
    1,682
    Thank you very much.
     
  10. spyro10

    spyro10 New Member

    Joined:
    Jul 2, 2016
    Messages:
    29
    Likes Received:
    0
    Thanks so much