Dove Cameron - Better In Stereo (DISNEYHD-1080i-AAC2.0-Dfrazzer)-HDMania

Discussion in 'DISNEY HD' started by Dfrazzer, Jan 21, 2015.

  1. Dfrazzer

    Dfrazzer Super Moderator Staff Member Super Moderator Capper V . I . P. Donor

    Joined:
    Nov 4, 2013
    Messages:
    3,993
    Likes Received:
    8,136
    [​IMG] [​IMG] [​IMG] [​IMG]

    Code:
    General
    ID : 1 (0x1)
    Complete name : C:\Users\Dfrazzer\Desktop\Dove Cameron - Better In Stereo 1080i HDMania.ts
    Format : MPEG-TS
    File size : 281 MiB
    Duration : 2mn 55s
    Overall bit rate mode : Variable
    Overall bit rate : 13.4 Mbps
    
    Video
    ID : 100 (0x64)
    Menu ID : 1 (0x1)
    Format : AVC
    Format/Info : Advanced Video Codec
    Format profile : [email protected]
    Format settings, CABAC : Yes
    Format settings, ReFrames : 2 frames
    Codec ID : 27
    Duration : 2mn 55s
    Bit rate mode : Variable
    Bit rate : 12.1 Mbps
    Maximum bit rate : 24.0 Mbps
    Width : 1 920 pixels
    Height : 1 080 pixels
    Display aspect ratio : 16:9
    Frame rate : 25.000 fps
    Color space : YUV
    Chroma subsampling : 4:2:0
    Bit depth : 8 bits
    Scan type : Interlaced
    Scan order : Top Field First
    Bits/(Pixel*Frame) : 0.233
    Stream size : 253 MiB (90%)
    Color primaries : BT.709
    Transfer characteristics : BT.709
    Matrix coefficients : BT.709
    
    Audio #1
    ID : 101 (0x65)
    Menu ID : 1 (0x1)
    Format : AAC
    Format/Info : Advanced Audio Codec
    Format version : Version 4
    Format profile : LC
    Muxing mode : ADTS
    Codec ID : 15
    Duration : 2mn 55s
    Bit rate mode : Variable
    Bit rate : 220 Kbps
    Channel(s) : 2 channels
    Channel positions : Front: L R
    Sampling rate : 48.0 KHz
    Compression mode : Lossy
    Stream size : 4.61 MiB (2%)
    
    Audio #2
    ID : 103 (0x67)
    Menu ID : 1 (0x1)
    Format : AAC
    Format/Info : Advanced Audio Codec
    Format version : Version 4
    Format profile : LC
    Muxing mode : ADTS
    Codec ID : 15
    Duration : 2mn 55s
    Bit rate mode : Variable
    Bit rate : 220 Kbps
    Channel(s) : 2 channels
    Channel positions : Front: L R
    Sampling rate : 48.0 KHz
    Compression mode : Lossy
    Stream size : 4.61 MiB (2%)
    
    Audio #3
    ID : 105 (0x69)
    Menu ID : 1 (0x1)
    Format : AAC
    Format/Info : Advanced Audio Codec
    Format version : Version 4
    Format profile : LC
    Muxing mode : ADTS
    Codec ID : 15
    Duration : 2mn 55s
    Bit rate mode : Variable
    Bit rate : 220 Kbps
    Channel(s) : 2 channels
    Channel positions : Front: L R
    Sampling rate : 48.0 KHz
    Compression mode : Lossy
    Stream size : 4.61 MiB (2%)
    
    Hidden Content:
    You must reply before you can see the hidden data contained here.
    Capped by me.
     
    Last edited: Jul 29, 2015
  2. Loading...


  3. indreams2011

    indreams2011 Member

    Joined:
    Dec 10, 2014
    Messages:
    663
    Likes Received:
    19
     
  4. rhea

    rhea Well-Known Member

    Joined:
    Jan 6, 2014
    Messages:
    5,577
    Likes Received:
    340
    thank you so much :)
     
  5. Zatimi

    Zatimi Active Member

    Joined:
    Aug 27, 2014
    Messages:
    632
    Likes Received:
    76
    thanks so much
     
  6. KallumLavigne

    KallumLavigne Well-Known Member

    Joined:
    Nov 18, 2013
    Messages:
    676
    Likes Received:
    1,193
    thank you for this in 1080i :)
     
  7. pomodoro_2013

    pomodoro_2013 Member

    Joined:
    Nov 17, 2013
    Messages:
    328
    Likes Received:
    4
    Thank you so much.
     
  8. joelh20101

    joelh20101 Well-Known Member

    Joined:
    Nov 4, 2013
    Messages:
    1,459
    Likes Received:
    140
    thanks for this
     
  9. tf135

    tf135 Well-Known Member

    Joined:
    Nov 14, 2014
    Messages:
    1,732
    Likes Received:
    103
    thank you
     
  10. nightowl32

    nightowl32 Member

    Joined:
    Jun 7, 2014
    Messages:
    304
    Likes Received:
    15
    Thanks!!!
     
  11. bhjfghcfgh

    bhjfghcfgh Member

    Joined:
    Dec 27, 2014
    Messages:
    36
    Likes Received:
    0
    Thank you
     
  12. matilda

    matilda Active Member

    Joined:
    Nov 24, 2014
    Messages:
    312
    Likes Received:
    27
    thank you
     
  13. dave1202

    dave1202 Member

    Joined:
    Feb 19, 2015
    Messages:
    99
    Likes Received:
    1
    thank you
     
  14. celio

    celio Member

    Joined:
    Oct 29, 2013
    Messages:
    965
    Likes Received:
    15
    thank you so much
     
  15. celio

    celio Member

    Joined:
    Oct 29, 2013
    Messages:
    965
    Likes Received:
    15
    good good
     
  16. Vinny

    Vinny Active Member

    Joined:
    Dec 26, 2013
    Messages:
    1,858
    Likes Received:
    8
    Thanks! ;D
     
  17. Dfrazzer

    Dfrazzer Super Moderator Staff Member Super Moderator Capper V . I . P. Donor

    Joined:
    Nov 4, 2013
    Messages:
    3,993
    Likes Received:
    8,136
    I just added a new link to my post.
     
  18. edgar

    edgar Well-Known Member

    Joined:
    Oct 12, 2013
    Messages:
    1,498
    Likes Received:
    1,423
    thank you so much:love::love:
     
  19. Trop1cal

    Trop1cal Member

    Joined:
    Feb 5, 2015
    Messages:
    513
    Likes Received:
    10
    Thank you.
     
  20. shing000

    shing000 Member

    Joined:
    Mar 13, 2016
    Messages:
    587
    Likes Received:
    14
    gracias
     
  21. nocturn999

    nocturn999 Member

    Joined:
    Jul 17, 2014
    Messages:
    31
    Likes Received:
    0
    thanks!!!!