DVD Donna Lewis - I Love You Always Forever (Promo Only) [VOB]

Discussion in 'SD' started by claudio1301, Aug 4, 2020.

  1. claudio1301

    claudio1301 Well-Known Member

    Joined:
    Oct 2, 2018
    Messages:
    1,390
    Likes Received:
    2,928
    [​IMG]
    Code:
    General
    Complete name                  : Donna Lewis - I Love You Always Forever (Promo Only).vob
    Format                         : MPEG-PS
    File size                      : 149 MiB
    Duration                       : 3 min 10 s
    Overall bit rate mode          : Variable
    Overall bit rate               : 6 543 kb/s
    
    Video
    ID                             : 224 (0xE0)
    Format                         : MPEG Video
    Format version                 : Version 2
    Format profile                 : Main@Main
    Format settings                : BVOP
    Format settings, BVOP          : Yes
    Format settings, Matrix        : Default
    Format settings, GOP           : M=3, N=13
    Format settings, picture struc : Frame
    Duration                       : 3 min 10 s
    Bit rate mode                  : Variable
    Bit rate                       : 4 877 kb/s
    Maximum bit rate               : 7 800 kb/s
    Width                          : 720 pixels
    Height                         : 480 pixels
    Display aspect ratio           : 4:3
    Frame rate                     : 29.970 (30000/1001) FPS
    Standard                       : NTSC
    Color space                    : YUV
    Chroma subsampling             : 4:2:0
    Bit depth                      : 8 bits
    Scan type                      : Interlaced
    Scan order                     : Top Field First
    Compression mode               : Lossy
    Bits/(Pixel*Frame)             : 0.471
    Time code of first frame       : 00:00:00:00
    Time code source               : Group of pictures header
    GOP, Open/Closed               : Open
    Stream size                    : 111 MiB (75%)
    Color primaries                : BT.601 NTSC
    Transfer characteristics       : BT.601
    Matrix coefficients            : BT.601
    
    Audio
    ID                             : 189 (0xBD)-160 (0xA0)
    Format                         : PCM
    Format settings                : Big / Signed
    Muxing mode                    : DVD-Video
    Duration                       : 3 min 10 s
    Bit rate mode                  : Constant
    Bit rate                       : 1 536 kb/s
    Channel(s)                     : 2 channels
    Sampling rate                  : 48.0 kHz
    Bit depth                      : 16 bits
    Stream size                    : 34.9 MiB (23%)
    
    Menu
    Host: Mediafire
    Hidden Content:
    You must reply before you can see the hidden data contained here.
     
  2. Loading...


  3. kowalski2016

    kowalski2016 Active Member

    Joined:
    May 18, 2016
    Messages:
    588
    Likes Received:
    44
    thank you!
     
  4. murdereach

    murdereach Active Member

    Joined:
    Apr 11, 2020
    Messages:
    693
    Likes Received:
    32
  5. sigosiendo

    sigosiendo Active Member

    Joined:
    Oct 30, 2018
    Messages:
    819
    Likes Received:
    39