Don Omar - Hasta Abajo (Stingrey.Concerts.HD.1080i.DD5.1).-Crusha

Discussion in 'Stingray Concerts HD' started by Crusha, Sep 12, 2015.

  1. Crusha

    Crusha Well-Known Member Capper

    Joined:
    Oct 15, 2014
    Messages:
    2,350
    Likes Received:
    2,340
    [​IMG]

    Mediainfo:
    General
    ID : 1 (0x1)
    Complete name : Don Omar - Hasta Abajo (Stingrey.Concerts.HD.1080i.DD5.1).-Crusha.ts
    Format : MPEG-TS
    File size : 172 MiB
    Duration : 5mn 59s
    Overall bit rate mode : Variable
    Overall bit rate : 4 004 Kbps

    Video
    ID : 2833 (0xB11)
    Menu ID : 1522 (0x5F2)
    Format : AVC
    Format/Info : Advanced Video Codec
    Format profile : [email protected]
    Format settings, CABAC : Yes
    Format settings, ReFrames : 4 frames
    Codec ID : 27
    Duration : 5mn 59s
    Bit rate : 3 418 Kbps
    Width : 1 920 pixels
    Height : 1 080 pixels
    Display aspect ratio : 16:9
    Frame rate : 29.970 fps
    Standard : Component
    Color space : YUV
    Chroma subsampling : 4:2:0
    Bit depth : 8 bits
    Scan type : MBAFF
    Scan order : Top Field First
    Bits/(Pixel*Frame) : 0.055
    Stream size : 147 MiB (85%)
    Color range : Limited
    Color primaries : BT.709
    Transfer characteristics : BT.709
    Matrix coefficients : BT.709

    Audio
    ID : 3758 (0xEAE)
    Menu ID : 1522 (0x5F2)
    Format : AC-3
    Format/Info : Audio Coding 3
    Mode extension : CM (complete main)
    Format settings, Endianness : Big
    Codec ID : 6
    Duration : 5mn 59s
    Bit rate mode : Constant
    Bit rate : 384 Kbps
    Channel(s) : 6 channels
    Channel positions : Front: L C R, Side: L R, LFE
    Sampling rate : 48.0 KHz
    Bit depth : 16 bits
    Compression mode : Lossy
    Delay relative to video : -66ms
    Stream size : 16.5 MiB (10%)
    Language : English

    Hidden Content:
    You must either reply or click 'Like' to see the hidden information contained here.
    Password: crusha

    Cap By Me :)
     
    DiVenturas, leryck and aquafor like this.
  2. Dima24684

    Dima24684 Member

    Joined:
    Dec 20, 2015
    Messages:
    162
    Likes Received:
    7
    thanks
     
  3. anton

    anton Member

    Joined:
    May 24, 2016
    Messages:
    421
    Likes Received:
    7
    Thanks
     
  4. jms_salta

    jms_salta Member

    Joined:
    Nov 9, 2014
    Messages:
    33
    Likes Received:
    0
    graxssss
     
  5. manolo2020

    manolo2020 Member

    Joined:
    Oct 16, 2016
    Messages:
    63
    Likes Received:
    1
    gracias
     
  6. leryck

    leryck Member

    Joined:
    Sep 21, 2016
    Messages:
    44
    Likes Received:
    1
    graciass
     
  7. mcslimshady

    mcslimshady Active Member

    Joined:
    Jun 20, 2016
    Messages:
    1,042
    Likes Received:
    16
    thanks man
     
  8. looky

    looky Member

    Joined:
    Mar 22, 2017
    Messages:
    182
    Likes Received:
    4
    gracias.
     
  9. DiVenturas

    DiVenturas Well-Known Member

    Joined:
    Oct 21, 2015
    Messages:
    2,483
    Likes Received:
    79
  10. kkruzito

    kkruzito New Member

    Joined:
    May 16, 2017
    Messages:
    7
    Likes Received:
    0