Dolly Parton & Katy Perry - Medley (51st Academy of Country Music Awards 2016) SDTV & WEBRip

Discussion in 'SD Live Performances' started by danixat, Apr 5, 2016.

  1. danixat

    danixat Katycat ^-^ Capper V . I . P. Donor

    Joined:
    Feb 23, 2014
    Messages:
    1,207
    Likes Received:
    8,258
    SDTV [2Maverick]
    [​IMG]
    Code:
    General
    Complete name                  : K:\Dolly Parton & Katy Perry - Medley (51st Academy of Country Music Awards 2016) SDTV-2Maverick.mp4
    Format                         : MPEG-4
    Format profile                 : Base Media
    Codec ID                       : isom
    File size                      : 58.8 MiB
    Duration                       : 5mn 28s
    Overall bit rate               : 1 500 Kbps
    Writing application            : Lavf54.63.104
    
    Video
    ID                             : 1
    Format                         : AVC
    Format/Info                    : Advanced Video Codec
    Format profile                 : Main@L4.0
    Format settings, CABAC         : Yes
    Format settings, ReFrames      : 4 frames
    Codec ID                       : avc1
    Codec ID/Info                  : Advanced Video Coding
    Duration                       : 5mn 28s
    Bit rate                       : 1 333 Kbps
    Width                          : 720 pixels
    Height                         : 364 pixels
    Display aspect ratio           : 16:9
    Original display aspect ratio  : 16:9
    Frame rate mode                : Variable
    Frame rate                     : 29.970 fps
    Original frame rate            : 25.000 fps
    Minimum frame rate             : 23.451 fps
    Maximum frame rate             : 30.000 fps
    Color space                    : YUV
    Chroma subsampling             : 4:2:0
    Bit depth                      : 8 bits
    Scan type                      : Progressive
    Bits/(Pixel*Frame)             : 0.170
    Stream size                    : 52.3 MiB (89%)
    Color primaries                : BT.601 NTSC
    Transfer characteristics       : BT.709
    Matrix coefficients            : BT.601
    
    Audio
    ID                             : 2
    Format                         : AAC
    Format/Info                    : Advanced Audio Codec
    Format profile                 : LC
    Codec ID                       : 40
    Duration                       : 5mn 28s
    Bit rate mode                  : Constant
    Bit rate                       : 160 Kbps
    Channel(s)                     : 2 channels
    Channel positions              : Front: L R
    Sampling rate                  : 48.0 KHz
    Compression mode               : Lossy
    Stream size                    : 6.28 MiB (11%)
    Download:
    Hidden Content:
    You must either reply or click 'Like' to see the hidden information contained here.
    WEBRip
    [​IMG]
    Code:
    General
    Complete name                  : K:\Dolly Parton & Katy Perry - Medley (51st Academy of Country Music Awards 2016) WEBRip.mp4
    Format                         : MPEG-4
    Format profile                 : Base Media
    Codec ID                       : isom
    File size                      : 43.2 MiB
    Duration                       : 5mn 1s
    Overall bit rate mode          : Variable
    Overall bit rate               : 1 201 Kbps
    Writing application            : Lavf56.40.100
    
    Video
    ID                             : 1
    Format                         : AVC
    Format/Info                    : Advanced Video Codec
    Format profile                 : Main@L3.1
    Format settings, CABAC         : Yes
    Format settings, ReFrames      : 4 frames
    Codec ID                       : avc1
    Codec ID/Info                  : Advanced Video Coding
    Duration                       : 5mn 1s
    Bit rate                       : 1 107 Kbps
    Width                          : 854 pixels
    Height                         : 480 pixels
    Display aspect ratio           : 16:9
    Frame rate mode                : Constant
    Frame rate                     : 29.970 fps
    Color space                    : YUV
    Chroma subsampling             : 4:2:0
    Bit depth                      : 8 bits
    Scan type                      : Progressive
    Bits/(Pixel*Frame)             : 0.090
    Stream size                    : 39.8 MiB (92%)
    Writing library                : x264 core 146 r2 121396c
    Language                       : English
    
    Audio
    ID                             : 2
    Format                         : AAC
    Format/Info                    : Advanced Audio Codec
    Format profile                 : LC
    Codec ID                       : 40
    Duration                       : 5mn 1s
    Bit rate mode                  : Variable
    Bit rate                       : 85.9 Kbps
    Maximum bit rate               : 1 200 Kbps
    Channel(s)                     : 2 channels
    Channel positions              : Front: L R
    Sampling rate                  : 48.0 KHz
    Compression mode               : Lossy
    Stream size                    : 3.09 MiB (7%)
    Language                       : English
    Download:
    Hidden Content:
    You must either reply or click 'Like' to see the hidden information contained here.
     
    jloismyhq, drkickass, orgulo and 15 others like this.
  2. danixat

    danixat Katycat ^-^ Capper V . I . P. Donor

    Joined:
    Feb 23, 2014
    Messages:
    1,207
    Likes Received:
    8,258
    Waiting for HDTV 720p/1080i :victory:
     
    winebaldo likes this.
  3. winebaldo

    winebaldo Member

    Joined:
    Oct 19, 2015
    Messages:
    274
    Likes Received:
    13
    Me too. Thanks for this!! :)
     
  4. JasonKay

    JasonKay Member

    Joined:
    Apr 24, 2015
    Messages:
    59
    Likes Received:
    0
    Me too. Can't wait!
     
  5. Puchacz93

    Puchacz93 Well-Known Member

    Joined:
    Feb 4, 2015
    Messages:
    1,206
    Likes Received:
    787
    Thank you.:love:
     
  6. xtomekx

    xtomekx Member

    Joined:
    Jan 13, 2014
    Messages:
    637
    Likes Received:
    19
    Thank you
     
  7. toonbbv

    toonbbv Well-Known Member

    Joined:
    Dec 11, 2013
    Messages:
    2,323
    Likes Received:
    110
    thank you
     
  8. bruno1901

    bruno1901 Active Member

    Joined:
    Dec 9, 2015
    Messages:
    841
    Likes Received:
    107
    Thank you
     
  9. gregory1993

    gregory1993 Member

    Joined:
    Nov 26, 2015
    Messages:
    45
    Likes Received:
    5
    thanks!!
     
  10. sideshow_bob

    sideshow_bob Well-Known Member

    Joined:
    Dec 20, 2013
    Messages:
    3,319
    Likes Received:
    330
  11. mahsa

    mahsa Member

    Joined:
    Mar 10, 2016
    Messages:
    299
    Likes Received:
    8
  12. ricards51

    ricards51 Well-Known Member

    Joined:
    Oct 10, 2016
    Messages:
    1,307
    Likes Received:
    33
    very special
     
  13. Simon Diego

    Simon Diego Member

    Joined:
    Apr 4, 2014
    Messages:
    30
    Likes Received:
    0
    very cool
     
  14. Harlow

    Harlow Active Member

    Joined:
    Dec 18, 2015
    Messages:
    472
    Likes Received:
    40