DJ Snake & Lil Jon - Turn Down For What (Trace HD-1080i)-Olgold

Discussion in 'TRACE URBAN HD' started by Olgold, Aug 20, 2015.

  1. Olgold

    Olgold Well-Known Member Capper

    Joined:
    Aug 19, 2015
    Messages:
    436
    Likes Received:
    1,638
    [​IMG]
    General
    Format : MPEG-TS
    File size : 200 MiB
    Duration : 3mn 31s
    Overall bit rate mode : Variable
    Overall bit rate : 7 938 Kbps

    Video
    Format : AVC
    Format/Info : Advanced Video Codec
    Format profile : [email protected]
    Format settings, CABAC : Yes
    Format settings, ReFrames : 4 frames
    Duration : 3mn 31s
    Bit rate : 7 352 Kbps
    Width : 1 920 pixels
    Height : 1 080 pixels
    Display aspect ratio : 16:9
    Frame rate : 25.000 fps
    Standard : Component
    Color space : YUV
    Chroma subsampling : 4:2:0
    Bit depth : 8 bits
    Scan type : Interlaced
    Scan order : Top Field First
    Bits/(Pixel*Frame) : 0.142
    Stream size : 185 MiB (93%)
    Color range : Limited

    Audio
    Format : MPEG Audio
    Format version : Version 1
    Format profile : Layer 2
    Duration : 3mn 31s
    Bit rate mode : Constant
    Bit rate : 192 Kbps
    Channel(s) : 2 channels
    Sampling rate : 48.0 KHz
    Compression mode : Lossy
    Delay relative to video : 15ms
    Stream size : 4.84 MiB (2%)
    Language : English
    Language, more info : Clean effects
    Hidden Content:
    You must reply before you can see the hidden data contained here.
     
    rhea, 777josem and CELOBRAZiL like this.
  2. rhea

    rhea Well-Known Member

    Joined:
    Jan 6, 2014
    Messages:
    6,151
    Likes Received:
    496
    thank you so much :)
     
  3. Crusha

    Crusha Well-Known Member Capper

    Joined:
    Oct 15, 2014
    Messages:
    2,350
    Likes Received:
    2,369
    thank you
     
  4. Jose_Moreira_2014

    Jose_Moreira_2014 Member

    Joined:
    Oct 23, 2014
    Messages:
    132
    Likes Received:
    7
    Gracias Amigo
     
  5. krith

    krith Member

    Joined:
    Dec 28, 2014
    Messages:
    56
    Likes Received:
    1
    thank yyou:)
     
  6. limonato

    limonato Member

    Joined:
    Dec 1, 2014
    Messages:
    206
    Likes Received:
    4
    Awesome, thank you!!!
     
  7. Ivan1980

    Ivan1980 Member

    Joined:
    Jan 9, 2016
    Messages:
    95
    Likes Received:
    1
    thank you
     
  8. Dima24684

    Dima24684 Member

    Joined:
    Dec 20, 2015
    Messages:
    165
    Likes Received:
    7
    thanksss
     
  9. bibidj

    bibidj Member

    Joined:
    Sep 23, 2016
    Messages:
    30
    Likes Received:
    1
    thaank
     
  10. video60fps

    video60fps Member

    Joined:
    Nov 3, 2016
    Messages:
    63
    Likes Received:
    0
    hello
     
  11. Farish10

    Farish10 Member

    Joined:
    Aug 28, 2014
    Messages:
    33
    Likes Received:
    1
    thank yyou
     
  12. seregil

    seregil Member

    Joined:
    Sep 5, 2014
    Messages:
    103
    Likes Received:
    1
    thanks
     
  13. Cyberbob

    Cyberbob Member

    Joined:
    May 27, 2016
    Messages:
    173
    Likes Received:
    1
    thanks
     
  14. nounouche

    nounouche Member

    Joined:
    Feb 24, 2017
    Messages:
    34
    Likes Received:
    0
    This music video has been edited from his original version. It has been edited for content.