Divino "Hoy Te Vas, Una Lagrima" (DVD NTSC RETAIL)

Discussion in 'SD' started by dgol22, Jun 30, 2020.

  1. dgol22

    dgol22 Well-Known Member

    Joined:
    Sep 2, 2018
    Messages:
    344
    Likes Received:
    464

    Divino "Hoy Te Vas, Una Lagrima" (DVD NTSC RETAIL)

    [​IMG]




    General
    Complete name : Divino "Hoy Te Vas, Una Lagrima".mpeg
    Format : MPEG-PS
    File size : 128 MiB
    Duration : 4mn 5s
    Overall bit rate mode : Variable
    Overall bit rate : 4 360 Kbps

    Video
    ID : 224 (0xE0)
    Format : MPEG Video
    Format version : Version 2
    Format profile : Main@Main
    Format settings, BVOP : Yes
    Format settings, Matrix : Custom
    Format settings, GOP : M=3, N=15
    Duration : 4mn 5s
    Bit rate mode : Variable
    Bit rate : 4 018 Kbps
    Width : 720 pixels
    Height : 480 pixels
    Display aspect ratio : 4:3
    Frame rate : 29.970 fps
    Standard : NTSC
    Color space : YUV
    Chroma subsampling : 4:2:0
    Bit depth : 8 bits
    Compression mode : Lossy
    Bits/(Pixel*Frame) : 0.388
    Stream size : 117 MiB (92%)

    Audio
    ID : 192 (0xC0)
    Format : MPEG Audio
    Format version : Version 1
    Format profile : Layer 2
    Duration : 4mn 4s
    Bit rate mode : Constant
    Bit rate : 256 Kbps
    Channel(s) : 2 channels
    Sampling rate : 48.0 KHz
    Compression mode : Lossy
    Delay relative to video : 11ms
    Stream size : 7.47 MiB (6%)

    Hidden Content:
    You must reply before you can see the hidden data contained here.
     
    rus31 likes this.
  2. Loading...


  3. Nene14

    Nene14 Member

    Joined:
    Mar 1, 2019
    Messages:
    303
    Likes Received:
    5
    thabnks brooo
     
  4. rus31

    rus31 Active Member

    Joined:
    May 20, 2016
    Messages:
    861
    Likes Received:
    41
    thanks
     
  5. darkmagicar5

    darkmagicar5 Active Member

    Joined:
    Oct 8, 2019
    Messages:
    580
    Likes Received:
    207
    gente aparte de agradecer boten arriba donde están las estrellas ,bro busque en tu perfil el de
    N.O.R.E. ft. Daddy Yankee, Nina Sky, Gem Star, Big Mato
    Oye Mi Canto y no me aparece
     
  6. Sheki

    Sheki Active Member

    Joined:
    Oct 5, 2015
    Messages:
    929
    Likes Received:
    42
    Thanks
     
  7. user2016

    user2016 Active Member

    Joined:
    Nov 9, 2016
    Messages:
    349
    Likes Received:
    30
    Thanks
     
  8. Sentro

    Sentro Member

    Joined:
    Jun 19, 2020
    Messages:
    188
    Likes Received:
    0
    Gracias
     
  9. Eliezer505

    Eliezer505 Member

    Joined:
    Feb 13, 2020
    Messages:
    174
    Likes Received:
    0
    gracias
     
  10. yilder1

    yilder1 Well-Known Member

    Joined:
    Aug 25, 2016
    Messages:
    1,095
    Likes Received:
    192
    gracias amigo