DVD Divino Feat. Daddy Yankee, Polaco, Angel & Khriz - Se Activaron Los Anormales, Super Gansteril, Tre

Discussion in 'SD' started by dgol22, Jun 30, 2020.

  1. dgol22

    dgol22 Well-Known Member

    Joined:
    Sep 2, 2018
    Messages:
    344
    Likes Received:
    464


    Divino Feat. Daddy Yankee, Polaco, Angel & Khriz - Se Activaron Los Anormales, Super Gansteril, Tres Perros (DVD NTSC RETAIL)

    [​IMG]

    General
    Complete name : Divino - Se Activaron Los Anormales, Super Gansteril, Tres Perros.mpeg
    Format : MPEG-PS
    File size : 148 MiB
    Duration : 4mn 19s
    Overall bit rate mode : Variable
    Overall bit rate : 4 794 Kbps

    Video
    ID : 224 (0xE0)
    Format : MPEG Video
    Format version : Version 2
    Format profile : Main@Main
    Format settings, BVOP : Yes
    Format settings, Matrix : Custom
    Format settings, GOP : M=3, N=15
    Duration : 4mn 19s
    Bit rate mode : Variable
    Bit rate : 4 442 Kbps
    Maximum bit rate : 4 650 Kbps
    Width : 720 pixels
    Height : 480 pixels
    Display aspect ratio : 4:3
    Frame rate : 29.970 fps
    Standard : NTSC
    Color space : YUV
    Chroma subsampling : 4:2:0
    Bit depth : 8 bits
    Scan type : Interlaced
    Scan order : Top Field First
    Compression mode : Lossy
    Bits/(Pixel*Frame) : 0.429
    Time code of first frame : 00:00:00;00
    Time code source : Group of pictures header
    Stream size : 137 MiB (93%)

    Audio
    ID : 192 (0xC0)
    Format : MPEG Audio
    Format version : Version 1
    Format profile : Layer 2
    Duration : 4mn 19s
    Bit rate mode : Constant
    Bit rate : 256 Kbps
    Channel(s) : 2 channels
    Sampling rate : 48.0 KHz
    Compression mode : Lossy
    Delay relative to video : 5ms
    Stream size : 7.91 MiB (5%)

    Hidden Content:
    You must reply before you can see the hidden data contained here.
     
    rus31 likes this.
  2. Loading...


  3. Nene14

    Nene14 Member

    Joined:
    Mar 1, 2019
    Messages:
    303
    Likes Received:
    5
    muchas gracias hermano
     
  4. rus31

    rus31 Active Member

    Joined:
    May 20, 2016
    Messages:
    861
    Likes Received:
    42
    thanks
     
  5. darkmagicar5

    darkmagicar5 Active Member

    Joined:
    Oct 8, 2019
    Messages:
    580
    Likes Received:
    207
    gracias se ve genial
     
  6. Sheki

    Sheki Active Member

    Joined:
    Oct 5, 2015
    Messages:
    929
    Likes Received:
    42
    Thanks
     
  7. user2016

    user2016 Active Member

    Joined:
    Nov 9, 2016
    Messages:
    349
    Likes Received:
    30
    Thanks So Much!
     
  8. JonathanM

    JonathanM Member

    Joined:
    Jun 13, 2020
    Messages:
    160
    Likes Received:
    1
    thanks
     
  9. Dannymixer

    Dannymixer Member

    Joined:
    Dec 4, 2019
    Messages:
    111
    Likes Received:
    0
    Temon . . . Muchas Gracias Por compartir !!!
     
  10. rodrigoph1992

    rodrigoph1992 Member

    Joined:
    May 31, 2020
    Messages:
    114
    Likes Received:
    7
    grasias
     
  11. macuflow2020

    macuflow2020 Member

    Joined:
    Jun 25, 2020
    Messages:
    78
    Likes Received:
    1
  12. Yampy10

    Yampy10 Member

    Joined:
    Jun 27, 2020
    Messages:
    35
    Likes Received:
    0
    Gracias
     
  13. DJ EUROPEO

    DJ EUROPEO Member

    Joined:
    Jun 27, 2020
    Messages:
    81
    Likes Received:
    0
  14. Arcamilo13

    Arcamilo13 Member

    Joined:
    Aug 6, 2019
    Messages:
    65
    Likes Received:
    2
    muchas gracias!!!!!!!!
     
  15. yilder1

    yilder1 Well-Known Member

    Joined:
    Aug 25, 2016
    Messages:
    1,095
    Likes Received:
    192
    muchas gracias!