Divino - Conmigo Siempre (DVD NTSC RETAIL)

Discussion in 'SD' started by dgol22, Jun 30, 2020.

  1. dgol22

    dgol22 Well-Known Member

    Joined:
    Sep 2, 2018
    Messages:
    344
    Likes Received:
    464


    Divino - Conmigo Siempre (DVD NTSC RETAIL)



    [​IMG]

    General
    Complete name : Divino - Conmigo Siempre.VOB
    Format : MPEG-PS
    File size : 163 MiB
    Duration : 3mn 35s
    Overall bit rate mode : Variable
    Overall bit rate : 6 357 Kbps

    Video
    ID : 224 (0xE0)
    Format : MPEG Video
    Format version : Version 2
    Format profile : Main@Main
    Format settings, BVOP : Yes
    Format settings, Matrix : Default
    Format settings, GOP : M=3, N=15
    Duration : 3mn 35s
    Bit rate mode : Variable
    Bit rate : 6 039 Kbps
    Maximum bit rate : 8 000 Kbps
    Width : 720 pixels
    Height : 480 pixels
    Display aspect ratio : 4:3
    Frame rate : 29.970 fps
    Standard : NTSC
    Color space : YUV
    Chroma subsampling : 4:2:0
    Bit depth : 8 bits
    Scan type : Interlaced
    Scan order : Bottom Field First
    Compression mode : Lossy
    Bits/(Pixel*Frame) : 0.583
    Time code of first frame : 00:00:00:00
    Time code source : Group of pictures header
    Stream size : 155 MiB (95%)

    Audio
    ID : 189 (0xBD)-128 (0x80)
    Format : AC-3
    Format/Info : Audio Coding 3
    Mode extension : CM (complete main)
    Format settings, Endianness : Big
    Muxing mode : DVD-Video
    Duration : 3mn 35s
    Bit rate mode : Constant
    Bit rate : 192 Kbps
    Channel(s) : 2 channels
    Channel positions : Front: L R
    Sampling rate : 48.0 KHz
    Bit depth : 16 bits
    Compression mode : Lossy
    Stream size : 4.93 MiB (3%)

    Menu

    Hidden Content:
    You must reply before you can see the hidden data contained here.
     
    rus31 likes this.
  2. Loading...


  3. Nene14

    Nene14 Member

    Joined:
    Mar 1, 2019
    Messages:
    303
    Likes Received:
    5
    gracias bro
     
  4. rus31

    rus31 Active Member

    Joined:
    May 20, 2016
    Messages:
    861
    Likes Received:
    42
    thanks
     
  5. darkmagicar5

    darkmagicar5 Active Member

    Joined:
    Oct 8, 2019
    Messages:
    580
    Likes Received:
    207
    muchas gracias por el video
     
  6. Sheki

    Sheki Active Member

    Joined:
    Oct 5, 2015
    Messages:
    929
    Likes Received:
    42
    Thanks
     
  7. user2016

    user2016 Active Member

    Joined:
    Nov 9, 2016
    Messages:
    349
    Likes Received:
    30
    Thanks
     
  8. yilder1

    yilder1 Well-Known Member

    Joined:
    Aug 25, 2016
    Messages:
    1,095
    Likes Received:
    192
    gracias amigo!