Divino - Bandolero ''Creditos'' (DVD NTSC RETAIL)

Discussion in 'SD' started by dgol22, Jun 30, 2020.

  1. dgol22

    dgol22 Well-Known Member

    Joined:
    Sep 2, 2018
    Messages:
    344
    Likes Received:
    464

    Divino - Bandolero ''Creditos'' (DVD NTSC RETAIL)



    [​IMG]

    General
    Complete name : Divino - Bandolero ''Creditos''.mpeg
    Format : MPEG-PS
    File size : 95.5 MiB
    Duration : 2mn 58s
    Overall bit rate mode : Variable
    Overall bit rate : 4 486 Kbps

    Video
    ID : 224 (0xE0)
    Format : MPEG Video
    Format version : Version 2
    Format profile : Main@Main
    Format settings, BVOP : Yes
    Format settings, Matrix : Custom
    Format settings, GOP : Variable
    Duration : 44ms
    Bit rate mode : Variable
    Bit rate : 4 141 Kbps
    Maximum bit rate : 4 650 Kbps
    Width : 720 pixels
    Height : 480 pixels
    Display aspect ratio : 4:3
    Frame rate : 29.970 fps
    Standard : NTSC
    Color space : YUV
    Chroma subsampling : 4:2:0
    Bit depth : 8 bits
    Scan type : Interlaced
    Scan order : Top Field First
    Compression mode : Lossy
    Bits/(Pixel*Frame) : 0.400
    Time code of first frame : 00:00:00;00
    Time code source : Group of pictures header
    Stream size : 16.9 KiB (0%)

    Audio
    ID : 192 (0xC0)
    Format : MPEG Audio
    Format version : Version 1
    Format profile : Layer 2
    Duration : 2mn 58s
    Bit rate mode : Constant
    Bit rate : 256 Kbps
    Channel(s) : 2 channels
    Sampling rate : 48.0 KHz
    Compression mode : Lossy
    Delay relative to video : 5ms
    Stream size : 5.45 MiB (6%)

    Text #1
    ID : 224 (0xE0)-T3
    Format : EIA-608
    Muxing mode, more info : Muxed in Video #1
    Bit rate mode : Constant
    Stream size : 0.00 Byte (0%)

    Text #2
    ID : 224 (0xE0)-T4
    Format : EIA-608
    Muxing mode, more info : Muxed in Video #1
    Bit rate mode : Constant
    Stream size : 0.00 Byte (0%)

    Hidden Content:
    You must reply before you can see the hidden data contained here.
     
    rus31 likes this.
  2. Loading...


  3. Nene14

    Nene14 Member

    Joined:
    Mar 1, 2019
    Messages:
    303
    Likes Received:
    5
    gracias hermano
     
  4. rus31

    rus31 Active Member

    Joined:
    May 20, 2016
    Messages:
    860
    Likes Received:
    41
    thanks
     
  5. darkmagicar5

    darkmagicar5 Active Member

    Joined:
    Oct 8, 2019
    Messages:
    580
    Likes Received:
    207
    muchas gracias
     
  6. Sheki

    Sheki Active Member

    Joined:
    Oct 5, 2015
    Messages:
    929
    Likes Received:
    42
    Thanks
     
  7. JonathanM

    JonathanM Member

    Joined:
    Jun 13, 2020
    Messages:
    160
    Likes Received:
    1
    gracias
     
  8. user2016

    user2016 Active Member

    Joined:
    Nov 9, 2016
    Messages:
    349
    Likes Received:
    30
    Thanks
     
  9. Sentro

    Sentro Member

    Joined:
    Jun 19, 2020
    Messages:
    188
    Likes Received:
    0
    Gracias
     
  10. Eliezer505

    Eliezer505 Member

    Joined:
    Feb 13, 2020
    Messages:
    174
    Likes Received:
    0
    gracias
     
  11. yilder1

    yilder1 Well-Known Member

    Joined:
    Aug 25, 2016
    Messages:
    1,095
    Likes Received:
    192
    muchas gracias!!