Disneys Friends for Change - Send It On (DISNEYHD-720p-DD5.1-Squee)

Discussion in 'DISNEY HD' started by maximunrobot, Jul 18, 2014.

  1. maximunrobot

    maximunrobot Active Member

    Joined:
    Apr 16, 2014
    Messages:
    60
    Likes Received:
    176
    [​IMG]
    General
    ID : 1 (0x1)
    Complete name : Disneys Friends for Change Send It On [720p DD5.1].ts
    Format : MPEG-TS
    File size : 376 MiB
    Duration : 3mn 25s
    Overall bit rate mode : Variable
    Overall bit rate : 15.3 Mbps

    Video
    ID : 17 (0x11)
    Menu ID : 1 (0x1)
    Format : MPEG Video
    Commercial name : HDV 720p
    Format version : Version 2
    Format profile : [email protected]
    Format settings, BVOP : No
    Format settings, Matrix : Custom
    Format settings, GOP : M=3, N=15
    Codec ID : 2
    Duration : 3mn 25s
    Bit rate mode : Variable
    Bit rate : 14.2 Mbps
    Maximum bit rate : 18.0 Mbps
    Width : 1 280 pixels
    Height : 720 pixels
    Display aspect ratio : 16:9
    Frame rate : 59.940 fps
    Color space : YUV
    Chroma subsampling : 4:2:0
    Bit depth : 8 bits
    Scan type : Progressive
    Compression mode : Lossy
    Bits/(Pixel*Frame) : 0.257
    Time code of first frame : 00:00:00;00
    Time code source : Group of pictures header
    Stream size : 348 MiB (92%)

    Audio
    ID : 20 (0x14)
    Menu ID : 1 (0x1)
    Format : AC-3
    Format/Info : Audio Coding 3
    Mode extension : CM (complete main)
    Format settings, Endianness : Big
    Codec ID : 129
    Duration : 3mn 25s
    Bit rate mode : Constant
    Bit rate : 384 Kbps
    Channel(s) : 6 channels
    Channel positions : Front: L C R, Side: L R, LFE
    Sampling rate : 48.0 KHz
    Bit depth : 16 bits
    Compression mode : Lossy
    Stream size : 9.42 MiB (3%)
    Language : English
    Credits to:
    Squee

    Hidden Content:
    You must reply before you can see the hidden data contained here.
     
    Last edited by a moderator: Apr 6, 2016
  2. dersullanajose

    dersullanajose New Member

    Joined:
    Jun 14, 2014
    Messages:
    8
    Likes Received:
    0
  3. rhea

    rhea Well-Known Member

    Joined:
    Jan 6, 2014
    Messages:
    6,213
    Likes Received:
    515
    thank you so much :)
     
  4. hungquocphan

    hungquocphan Member

    Joined:
    Nov 1, 2013
    Messages:
    504
    Likes Received:
    18
    thank you , 720p .ts
     
  5. alex

    alex Well-Known Member

    Joined:
    Nov 21, 2013
    Messages:
    4,538
    Likes Received:
    357
    :victory:
     
  6. OlivierLovatic

    OlivierLovatic Well-Known Member Capper

    Joined:
    Oct 23, 2013
    Messages:
    365
    Likes Received:
    278
    Thank You !!!! :)
     
  7. Kestr70

    Kestr70 New Member

    Joined:
    Apr 23, 2014
    Messages:
    16
    Likes Received:
    0
  8. maximunrobot

    maximunrobot Active Member

    Joined:
    Apr 16, 2014
    Messages:
    60
    Likes Received:
    176
    Disney’s Friends for Change - Send It On [544p DD5.1]

    [​IMG]

    Hidden Content:
    You must either reply or click 'Like' to see the hidden information contained here.
     
  9. pomodoro_2013

    pomodoro_2013 Member

    Joined:
    Nov 17, 2013
    Messages:
    342
    Likes Received:
    6
    thank you.
     
  10. Dfrazzer

    Dfrazzer Super Moderator Staff Member Super Moderator Capper V . I . P. Donor

    Joined:
    Nov 4, 2013
    Messages:
    4,325
    Likes Received:
    9,228
    Thanks so much. The files all say Wrong IP when I try to download them.
     
    Last edited: Jul 19, 2014
  11. ytyh

    ytyh Member

    Joined:
    Mar 30, 2014
    Messages:
    432
    Likes Received:
    4
    thanks
     
  12. Mwhaha

    Mwhaha Member

    Joined:
    Nov 17, 2013
    Messages:
    70
    Likes Received:
    1
  13. ericbook

    ericbook Member

    Joined:
    Jan 3, 2014
    Messages:
    202
    Likes Received:
    3
    thanks a lot ! :D
     
  14. slill

    slill Active Member

    Joined:
    Jul 25, 2014
    Messages:
    1,028
    Likes Received:
    15
    thanks for sharing
     
  15. thankstome

    thankstome Well-Known Member

    Joined:
    Feb 6, 2014
    Messages:
    816
    Likes Received:
    1,116
    thanks alot
     
  16. sanad khandelwal

    sanad khandelwal Well-Known Member

    Joined:
    Mar 14, 2014
    Messages:
    205
    Likes Received:
    287
  17. paulhenrys

    paulhenrys New Member

    Joined:
    Apr 7, 2014
    Messages:
    16
    Likes Received:
    2
    amazing *--*
     
  18. joelh20101

    joelh20101 Well-Known Member

    Joined:
    Nov 4, 2013
    Messages:
    1,460
    Likes Received:
    143
  19. joelh20101

    joelh20101 Well-Known Member

    Joined:
    Nov 4, 2013
    Messages:
    1,460
    Likes Received:
    143
    link dead :C
     
  20. sori

    sori Member

    Joined:
    Oct 22, 2013
    Messages:
    113
    Likes Received:
    0
    thanks