MOVIE Dirty Dancing (1987) [1080p BluRay REMUX AVC DTS-HD MA 7.1]

Discussion in 'Cinema Center' started by clublandtiger, Jan 11, 2019.

  1. clublandtiger

    clublandtiger Well-Known Member Uploader Donor

    Joined:
    Apr 4, 2016
    Messages:
    793
    Likes Received:
    4,659
    [​IMG]


    Code:
    Complete name                            : Dirty Dancing (1987) 1080p BluRay REMUX AVC DTS-HD MA 7.1
    Format                                   : Matroska
    Format version                           : Version 2
    File size                                : 21.9 GiB
    Duration                                 : 1 h 40 min
    Overall bit rate mode                    : Variable
    Overall bit rate                         : 31.3 Mb/s
    Encoded date                             : UTC 2019-01-03 11:39:50
    Writing application                      : MakeMKV v1.14.2 win(x64-release)
    Writing library                          : libmakemkv v1.14.2 (1.3.5/1.4.7) win(x64-release)
     
    Video
    ID                                       : 1
    ID in the original source medium         : 4113 (0x1011)
    Format                                   : AVC
    Format/Info                              : Advanced Video Codec
    Format profile                           : High@L4.1
    Format settings                          : CABAC / 3 Ref Frames
    Format settings, CABAC                   : Yes
    Format settings, RefFrames               : 3 frames
    Codec ID                                 : V_MPEG4/ISO/AVC
    Duration                                 : 1 h 40 min
    Bit rate mode                            : Variable
    Bit rate                                 : 26.7 Mb/s
    Maximum bit rate                         : 40.0 Mb/s
    Width                                    : 1 920 pixels
    Height                                   : 1 080 pixels
    Display aspect ratio                     : 16:9
    Frame rate mode                          : Constant
    Frame rate                               : 23.976 (24000/1001) FPS
    Color space                              : YUV
    Chroma subsampling                       : 4:2:0
    Bit depth                                : 8 bits
    Scan type                                : Progressive
    Bits/(Pixel*Frame)                       : 0.537
    Stream size                              : 18.7 GiB (85%)
    Language                                 : English
    Default                                  : No
    Forced                                   : No
    Original source medium                   : Blu-ray
     
    Audio #1
    ID                                       : 2
    ID in the original source medium         : 4352 (0x1100)
    Format                                   : DTS XLL
    Format/Info                              : Digital Theater Systems
    Commercial name                          : DTS-HD Master Audio
    Codec ID                                 : A_DTS
    Duration                                 : 1 h 40 min
    Bit rate mode                            : Variable
    Bit rate                                 : 2 666 kb/s
    Channel(s)                               : 8 channels
    Channel layout                           : C L R LFE Lb Rb Lss Rss
    Sampling rate                            : 48.0 kHz
    Frame rate                               : 93.750 FPS (512 SPF)
    Bit depth                                : 16 bits
    Compression mode                         : Lossless
    Stream size                              : 1.87 GiB (9%)
    Title                                    : Surround 7.1
    Language                                 : English
    Default                                  : Yes
    Forced                                   : No
    Original source medium                   : Blu-ray
     
    Audio #2
    ID                                       : 3
    ID in the original source medium         : 4352 (0x1100)
    Format                                   : DTS
    Format/Info                              : Digital Theater Systems
    Codec ID                                 : A_DTS
    Duration                                 : 1 h 40 min
    Bit rate mode                            : Constant
    Bit rate                                 : 1 509 kb/s
    Channel(s)                               : 6 channels
    Channel layout                           : C L R Ls Rs LFE
    Sampling rate                            : 48.0 kHz
    Frame rate                               : 93.750 FPS (512 SPF)
    Bit depth                                : 16 bits
    Compression mode                         : Lossy
    Stream size                              : 1.06 GiB (5%)
    Title                                    : Surround 5.1
    Language                                 : English
    Default                                  : No
    Forced                                   : No
    Original source medium                   : Blu-ray
     
    Audio #3
    ID                                       : 4
    ID in the original source medium         : 4354 (0x1102)
    Format                                   : AC-3
    Format/Info                              : Audio Coding 3
    Commercial name                          : Dolby Digital
    Codec ID                                 : A_AC3
    Duration                                 : 1 h 40 min
    Bit rate mode                            : Constant
    Bit rate                                 : 192 kb/s
    Channel(s)                               : 2 channels
    Channel layout                           : L R
    Sampling rate                            : 48.0 kHz
    Frame rate                               : 31.250 FPS (1536 SPF)
    Bit depth                                : 16 bits
    Compression mode                         : Lossy
    Stream size                              : 138 MiB (1%)
    Title                                    : Stereo
    Language                                 : English
    Service kind                             : Complete Main
    Default                                  : No
    Forced                                   : No
    Original source medium                   : Blu-ray
     
    Audio #4
    ID                                       : 5
    ID in the original source medium         : 4355 (0x1103)
    Format                                   : AC-3
    Format/Info                              : Audio Coding 3
    Commercial name                          : Dolby Digital
    Codec ID                                 : A_AC3
    Duration                                 : 1 h 40 min
    Bit rate mode                            : Constant
    Bit rate                                 : 192 kb/s
    Channel(s)                               : 2 channels
    Channel layout                           : L R
    Sampling rate                            : 48.0 kHz
    Frame rate                               : 31.250 FPS (1536 SPF)
    Bit depth                                : 16 bits
    Compression mode                         : Lossy
    Stream size                              : 138 MiB (1%)
    Title                                    : Stereo
    Language                                 : English
    Service kind                             : Complete Main
    Default                                  : No
    Forced                                   : No
    

    Download Server - Google One

    Hidden Content:
    You must reply before you can see the hidden data contained here.
     
    Last edited: Jan 24, 2019
    tf135 likes this.
  2. Loading...


  3. Scherzyboy

    Scherzyboy Super Moderator Staff Member Super Moderator V . I . P. Uploader Archiver

    Joined:
    May 14, 2015
    Messages:
    1,394
    Likes Received:
    2,100
  4. elnardgandalf

    elnardgandalf Member

    Joined:
    May 23, 2017
    Messages:
    165
    Likes Received:
    3
  5. Mimccann

    Mimccann Member

    Joined:
    Jan 24, 2019
    Messages:
    42
    Likes Received:
    1
    just checking
     
  6. xxstinkyxx

    xxstinkyxx New Member

    Joined:
    Jan 24, 2019
    Messages:
    11
    Likes Received:
    0
    Very nice..........
     
  7. Mimccann

    Mimccann Member

    Joined:
    Jan 24, 2019
    Messages:
    42
    Likes Received:
    1
    Enjoy the link taken down, the OP stole this from the site I post to.
     
  8. xxstinkyxx

    xxstinkyxx New Member

    Joined:
    Jan 24, 2019
    Messages:
    11
    Likes Received:
    0
    why this link doesn't work???
     
  9. clublandtiger

    clublandtiger Well-Known Member Uploader Donor

    Joined:
    Apr 4, 2016
    Messages:
    793
    Likes Received:
    4,659
    i just reuploaded now from my computer - enjoy the new link :super::lol:
     
    xxstinkyxx likes this.
  10. krilatoprase

    krilatoprase Member

    Joined:
    Oct 11, 2018
    Messages:
    52
    Likes Received:
    3
  11. gatita

    gatita New Member

    Joined:
    Jul 9, 2019
    Messages:
    21
    Likes Received:
    0
    thank you
     
  12. mariellisaa

    mariellisaa Member

    Joined:
    Jan 17, 2016
    Messages:
    215
    Likes Received:
    16
  13. tf135

    tf135 Well-Known Member

    Joined:
    Nov 14, 2014
    Messages:
    4,594
    Likes Received:
    251
    thanks
     
  14. prinzjmar89

    prinzjmar89 Member

    Joined:
    Aug 30, 2017
    Messages:
    224
    Likes Received:
    1