Dire Straits - Money For Nothing (MTVPulse-1080i-DD2.0)-Olgold

Discussion in 'MTV PULSE HD' started by Olgold, Aug 27, 2015.

  1. Olgold

    Olgold Well-Known Member Capper

    Joined:
    Aug 19, 2015
    Messages:
    436
    Likes Received:
    1,677
    [​IMG]
    General
    Format : MPEG-TS
    File size : 174 MiB
    Duration : 4mn 5s
    Overall bit rate mode : Variable
    Overall bit rate : 5 960 Kbps

    Video
    Format : AVC
    Format/Info : Advanced Video Codec
    Format profile : High@L4
    Format settings, CABAC : Yes
    Format settings, ReFrames : 4 frames
    Duration : 4mn 5s
    Bit rate : 5 407 Kbps
    Width : 1 920 pixels
    Height : 1 080 pixels
    Display aspect ratio : 16:9
    Frame rate : 25.000 fps
    Standard : Component
    Color space : YUV
    Chroma subsampling : 4:2:0
    Bit depth : 8 bits
    Scan type : MBAFF
    Scan order : Top Field First
    Bits/(Pixel*Frame) : 0.104
    Stream size : 158 MiB (91%)
    Color range : Limited

    Audio
    Format : AC-3
    Format/Info : Audio Coding 3
    Mode extension : CM (complete main)
    Format settings, Endianness : Big
    Duration : 4mn 5s
    Bit rate mode : Constant
    Bit rate : 256 Kbps
    Channel(s) : 2 channels
    Channel positions : Front: L R
    Sampling rate : 48.0 KHz
    Compression mode : Lossy
    Delay relative to video : 112ms
    Stream size : 7.49 MiB (4%)
    Language : English

    Hidden Content:
    You must reply before you can see the hidden data contained here.
     
    rvden, rhea, 777josem and 1 other person like this.
  2. Loading...


  3. rhea

    rhea Well-Known Member

    Joined:
    Jan 6, 2014
    Messages:
    6,616
    Likes Received:
    679
    thank you so much
     
  4. Flaxdevil

    Flaxdevil Member

    Joined:
    May 25, 2014
    Messages:
    285
    Likes Received:
    10
    nice video
     
  5. killers23

    killers23 Active Member

    Joined:
    Feb 27, 2015
    Messages:
    619
    Likes Received:
    82
    thank you
     
  6. danicoteca

    danicoteca Member

    Joined:
    Sep 10, 2016
    Messages:
    161
    Likes Received:
    17
  7. vuabip

    vuabip New Member

    Joined:
    Jan 1, 2017
    Messages:
    19
    Likes Received:
    1
    thanks
     
  8. wangyuqiang

    wangyuqiang Member

    Joined:
    Jul 21, 2016
    Messages:
    135
    Likes Received:
    4
    thank you
     
  9. Daniel Leite

    Daniel Leite Member

    Joined:
    Feb 18, 2017
    Messages:
    32
    Likes Received:
    5
    I want my MTV ♪
     
  10. seregil

    seregil Member

    Joined:
    Sep 5, 2014
    Messages:
    103
    Likes Received:
    1
    thanks
     
  11. rvden

    rvden Active Member

    Joined:
    Apr 9, 2017
    Messages:
    374
    Likes Received:
    224
    Thank you
     
  12. noriscout

    noriscout Active Member

    Joined:
    Apr 26, 2017
    Messages:
    290
    Likes Received:
    63
    Thanks, friendugan