Dido - Here with Me (MTVIdol-1080i-DD2.0)-Olgold

Discussion in 'MTV IDOL' started by Olgold, Apr 14, 2017.

  1. Olgold

    Olgold Well-Known Member Capper

    Joined:
    Aug 19, 2015
    Messages:
    436
    Likes Received:
    1,771
    Dido - Here with Me
    [​IMG]
    General
    Format : MPEG-TS
    File size : 169 MiB
    Duration : 3 min 19 s
    Overall bit rate mode : Variable
    Overall bit rate : 7 095 kb/s

    Video
    Format : AVC
    Format/Info : Advanced Video Codec
    Format profile : High@L4
    Format settings, CABAC : Yes
    Format settings, ReFrames : 4 frames
    Duration : 3 min 19 s
    Bit rate : 6 551 kb/s
    Width : 1 920 pixels
    Height : 1 080 pixels
    Display aspect ratio : 16:9
    Frame rate : 25.000 FPS
    Standard : Component
    Color space : YUV
    Chroma subsampling : 4:2:0
    Bit depth : 8 bits
    Scan type : MBAFF
    Scan type, store method : Interleaved fields
    Scan order : Top Field First
    Bits/(Pixel*Frame) : 0.126
    Stream size : 156 MiB (92%)

    Audio
    Format : AC-3
    Format/Info : Audio Coding 3
    Mode extension : CM (complete main)
    Format settings, Endianness : Big
    Duration : 3 min 19 s
    Bit rate mode : Constant
    Bit rate : 192 kb/s
    Channel(s) : 2 channels
    Channel positions : Front: L R
    Sampling rate : 48.0 kHz
    Frame rate : 31.250 FPS (1536 spf)
    Compression mode : Lossy
    Delay relative to video : -4 ms
    Stream size : 4.57 MiB (3%)
    Password: Olgold

    Hidden Content:
    You must reply before you can see the hidden data contained here.
     
    rhea, CELOBRAZiL, rvden and 1 other person like this.
  2. 777josem

    777josem ProRes 1080p LPCM

    Joined:
    Sep 1, 2014
    Messages:
    3,737
    Likes Received:
    3,242
    Thank you so much!
     
  3. Zatimi

    Zatimi Active Member

    Joined:
    Aug 27, 2014
    Messages:
    814
    Likes Received:
    174
    Thanks so much
     
  4. rvden

    rvden Well-Known Member

    Joined:
    Apr 9, 2017
    Messages:
    489
    Likes Received:
    337
    Great clip. Thank you!!!
     
  5. CELOBRAZiL

    CELOBRAZiL Well-Known Member Capper V . I . P. Donor

    Joined:
    Oct 2, 2013
    Messages:
    4,843
    Likes Received:
    15,489
    Thank you so much! :)
     
  6. bayeer

    bayeer Member

    Joined:
    May 26, 2016
    Messages:
    37
    Likes Received:
    5
    really thanks.more Dido videos please
     
  7. bayeer

    bayeer Member

    Joined:
    May 26, 2016
    Messages:
    37
    Likes Received:
    5
    which video player i can use for HD of this video
     
  8. CristianMatias

    CristianMatias HIGH DEFINITION

    Joined:
    Sep 17, 2016
    Messages:
    978
    Likes Received:
    35
    Dido - Here with Me
     
  9. rhea

    rhea Well-Known Member

    Joined:
    Jan 6, 2014
    Messages:
    7,550
    Likes Received:
    903
    thanks
     
  10. nastybutf4ncy

    nastybutf4ncy Well-Known Member

    Joined:
    Jun 25, 2017
    Messages:
    1,032
    Likes Received:
    389
    thanks
     
  11. brownbradpitt613

    brownbradpitt613 Member

    Joined:
    Sep 3, 2017
    Messages:
    662
    Likes Received:
    11
    merci beaucoup!
     
  12. trevorme

    trevorme Member

    Joined:
    Jan 12, 2017
    Messages:
    438
    Likes Received:
    13
    thanks
     
  13. gugaronaldosimba

    gugaronaldosimba New Member

    Joined:
    Nov 10, 2017
    Messages:
    22
    Likes Received:
    3
  14. Praveen867

    Praveen867 Member

    Joined:
    Nov 14, 2016
    Messages:
    611
    Likes Received:
    17
  15. seregil

    seregil Active Member

    Joined:
    Sep 5, 2014
    Messages:
    317
    Likes Received:
    29
    thanks