HDTV Dick Clark's New Year's Rockin' Eve With Ryan Seacrest (2018) 720p HDTV HDMania

Discussion in 'HD Live Performances' started by rgf72k, Jan 1, 2018.

  1. rgf72k

    rgf72k Founder Staff Member AdMiN Uploader

    Joined:
    Oct 1, 2013
    Messages:
    1,241
    Likes Received:
    18,870
    Dick Clark's New Year's Rockin' Eve With Ryan Seacrest 2018
    [First Half 8PM-11PM]
    720p HDTV DD2.0 H.264-HDMania

    [​IMG]
    [​IMG]
    [​IMG]
    [​IMG] [​IMG]

    General
    ID : 1 (0x1)
    Complete name : Dick Clark's New Year's Rockin' Eve With Ryan Seacrest 2018 [First Half 8PM-11PM] 720p HDTV DD2.0 H.264-HDMania.ts
    Format : MPEG-TS
    File size : 13.5 GiB
    Duration : 2 h 15 min
    Overall bit rate mode : Variable
    Overall bit rate : 14.3 Mb/s

    Video
    ID : 4113 (0x1011)
    Menu ID : 1 (0x1)
    Format : AVC
    Format/Info : Advanced Video Codec
    Format profile : Main@L4
    Format settings : CABAC / 4 Ref Frames
    Format settings, CABAC : Yes
    Format settings, RefFrames : 4 frames
    Codec ID : 27
    Duration : 2 h 15 min
    Bit rate mode : Variable
    Bit rate : 13.2 Mb/s
    Maximum bit rate : 20.0 Mb/s
    Width : 1 280 pixels
    Height : 720 pixels
    Display aspect ratio : 16:9
    Frame rate : 59.940 (60000/1001) FPS
    Color space : YUV
    Chroma subsampling : 4:2:0
    Bit depth : 8 bits
    Scan type : Progressive
    Bits/(Pixel*Frame) : 0.239
    Stream size : 12.5 GiB (92%)
    Color range : Limited
    Color primaries : BT.709
    Transfer characteristics : BT.709
    Matrix coefficients : BT.709

    Audio
    ID : 4352 (0x1100)
    Menu ID : 1 (0x1)
    Format : AC-3
    Format/Info : Audio Coding 3
    Codec ID : 129
    Duration : 2 h 15 min
    Bit rate mode : Constant
    Bit rate : 384 kb/s
    Channel(s) : 2 channels
    Channel positions : Front: L R
    Sampling rate : 48.0 kHz
    Frame rate : 31.250 FPS (1536 SPF)
    Bit depth : 16 bits
    Compression mode : Lossy
    Stream size : 373 MiB (3%)
    Language : English
    Service kind : Complete Main

    01. Kelly Clarkson - Love So Soft
    02. Charlie Puth - Attention
    03. Fitz and the Tantrums - HandClap
    04. Hailee Steinfeld, Alesso - Let Me Go ft. Florida Georgia Line, watt
    05. Sugarland - 5 Biggest Hits
    06. G-Eazy & Halsey - Him & I
    07. Shawn Mendes - Ruin
    08. BTS - DNA
    09. Khalid - Location
    10. Camila Cabello - Havana
    11. Britney Spears - Work Bitch
    12. Shawn Mendes - There's Nothing Holdin' Me Back
    13. Zedd, Alessia Cara - Stay
    14. WALK THE MOON - One Foot + Shut Up and Dance
    15. Nick Jonas - Home + Jealous
    16. Portugal. The Man - "Feel It Still"

    Download:
    Hidden Content:
    You must either reply or click 'Like' to see the hidden information contained here.

    Dick Clark's New Year's Rockin' Eve With Ryan Seacrest 2018
    [Second Half]
    720p HDTV DD2.0 H.264-HDMania

    [​IMG]
    [​IMG] [​IMG] [​IMG] [​IMG] [​IMG]

    General
    ID : 1 (0x1)
    Complete name : Dick Clark's New Year's Rockin' Eve With Ryan Seacrest 2018 [Second Half] 720p HDTV DD2.0 H.264-HDMania.ts
    Format : MPEG-TS
    File size : 10.5 GiB
    Duration : 1 h 45 min
    Overall bit rate mode : Variable
    Overall bit rate : 14.3 Mb/s

    Video
    ID : 4113 (0x1011)
    Menu ID : 1 (0x1)
    Format : AVC
    Format/Info : Advanced Video Codec
    Format profile : Main@L4
    Format settings : CABAC / 4 Ref Frames
    Format settings, CABAC : Yes
    Format settings, RefFrames : 4 frames
    Codec ID : 27
    Duration : 1 h 45 min
    Bit rate mode : Variable
    Bit rate : 13.2 Mb/s
    Maximum bit rate : 20.0 Mb/s
    Width : 1 280 pixels
    Height : 720 pixels
    Display aspect ratio : 16:9
    Frame rate : 59.940 (60000/1001) FPS
    Color space : YUV
    Chroma subsampling : 4:2:0
    Bit depth : 8 bits
    Scan type : Progressive
    Bits/(Pixel*Frame) : 0.239
    Stream size : 9.74 GiB (92%)
    Color range : Limited
    Color primaries : BT.709
    Transfer characteristics : BT.709
    Matrix coefficients : BT.709

    Audio
    ID : 4352 (0x1100)
    Menu ID : 1 (0x1)
    Format : AC-3
    Format/Info : Audio Coding 3
    Codec ID : 129
    Duration : 1 h 45 min
    Bit rate mode : Constant
    Bit rate : 384 kb/s
    Channel(s) : 2 channels
    Channel positions : Front: L R
    Sampling rate : 48.0 kHz
    Frame rate : 31.250 FPS (1536 SPF)
    Bit depth : 16 bits
    Compression mode : Lossy
    Stream size : 290 MiB (3%)
    Language : English
    Service kind : Complete Main

    01. Mariah Carey - Vision Of Love + Hero
    02. Britney Spears - Toxic
    03. Kelly Clarkson - Stronger (What Doesn't Kill You)
    04. BTS - MIC Drop
    05. Khalid - Young Dumb & Broke
    06. Imagine Dragons - Thunder + Believer
    07. Kelly Clarkson - Whole Lotta Woman
    08. Fitz And The Tantrums - The Walker
    09. Marshmello ft. Khalid - Silence
    10. Hailee Steinfeld - Most Girls
    11. Bebe Rexha - Meant to Be (feat. Florida Georgia Line)
    12. Shawn Mendes - Don’t Be A Fool
    13. Portugal. The Man - Live In The Moment
    14. Kane Brown - What Ifs
    15. Halsey - Bad At Love
    16. Charlie Puth - "How Long"

    Download:
    Hidden Content:
    You must either reply or click 'Like' to see the hidden information contained here.

    Capped By Me
    :victory:

    Happy New Year Everyone! :happy:
     
    Last edited: Jan 1, 2018
    salinda, mujjme, luna23 and 121 others like this.
  2. Loading...


  3. aturner18

    aturner18 Well-Known Member

    Joined:
    Oct 2, 2014
    Messages:
    1,617
    Likes Received:
    148
    thanks
     
    maz likes this.
  4. dersullana

    dersullana Well-Known Member

    Joined:
    Dec 21, 2015
    Messages:
    1,178
    Likes Received:
    56
  5. DEADLYCYNS

    DEADLYCYNS Member

    Joined:
    Feb 2, 2017
    Messages:
    436
    Likes Received:
    20
    thanks you
     
  6. DFL

    DFL Well-Known Member

    Joined:
    Dec 11, 2016
    Messages:
    782
    Likes Received:
    451
    Thanks!
     
  7. jose luis

    jose luis Member

    Joined:
    Nov 25, 2013
    Messages:
    400
    Likes Received:
    21
    THANKS !
     
  8. ScherzyBoy

    ScherzyBoy Well-Known Member V . I . P. Uploader

    Joined:
    May 14, 2015
    Messages:
    1,146
    Likes Received:
    1,299
  9. pinky

    pinky Well-Known Member

    Joined:
    Jun 27, 2015
    Messages:
    1,585
    Likes Received:
    56
    thank you :)
     
  10. hanyusen1989

    hanyusen1989 Member

    Joined:
    Oct 1, 2016
    Messages:
    421
    Likes Received:
    24
    thank you so much
     
  11. ildson

    ildson Active Member

    Joined:
    Nov 4, 2017
    Messages:
    476
    Likes Received:
    41
    thanks
     
  12. Road Runner

    Road Runner Active Member

    Joined:
    May 5, 2016
    Messages:
    119
    Likes Received:
    63
    thank you
     
  13. alexjspears

    alexjspears Member

    Joined:
    Jun 8, 2016
    Messages:
    181
    Likes Received:
    10
  14. glamic

    glamic New Member

    Joined:
    May 1, 2014
    Messages:
    21
    Likes Received:
    1
    Thank you so much!
     
  15. odeng

    odeng New Member

    Joined:
    May 22, 2017
    Messages:
    22
    Likes Received:
    2
    thanks
     
  16. miguelmr87

    miguelmr87 Well-Known Member

    Joined:
    Dec 20, 2013
    Messages:
    1,931
    Likes Received:
    371
    they''ve said Britney performed Toxic also.
     
  17. rgf72k

    rgf72k Founder Staff Member AdMiN Uploader

    Joined:
    Oct 1, 2013
    Messages:
    1,241
    Likes Received:
    18,870
    LOL this is just the first half, be patient!, i'm recording the other half right now, it's not over yet!! :p
     
    thekingdom1, 777josem and miguelmr87 like this.
  18. sssssss11

    sssssss11 Member

    Joined:
    Nov 20, 2016
    Messages:
    129
    Likes Received:
    3
  19. meloman67

    meloman67 Active Member

    Joined:
    Jun 8, 2014
    Messages:
    890
    Likes Received:
    134
  20. jklzm75

    jklzm75 Member

    Joined:
    Sep 12, 2017
    Messages:
    106
    Likes Received:
    5
    THX!!!!
     
  21. lastxdance

    lastxdance Active Member

    Joined:
    Dec 13, 2016
    Messages:
    541
    Likes Received:
    28
    Thank you!