Destiny's Child - Lose My Breath (MTV BASE HD-1080i-DD2.0-Olgold)

Discussion in 'MTV BASE' started by DETOX, Feb 24, 2015.

  1. DETOX

    DETOX K-POP fan ♡ V . I . P. Uploader

    Joined:
    Feb 20, 2014
    Messages:
    3,258
    Likes Received:
    22,674


    Destiny's Child - Lose My Breath (MTV BASE HD-1080i-DD2.0-Olgold)

    [​IMG]

    General
    ID : 16 (0x10)
    Complete name : Destiny's Child - Lose My Breath (MTV BASE HD-1080i-DD2.0-Olgold).ts
    Format : MPEG-TS
    File size : 236 MiB
    Duration : 3mn 36s
    Overall bit rate mode : Variable
    Overall bit rate : 9 122 Kbps

    Video
    ID : 110 (0x6E)
    Menu ID : 8001 (0x1F41)
    Format : AVC
    Format/Info : Advanced Video Codec
    Format profile : [email protected]
    Format settings, CABAC : Yes
    Format settings, ReFrames : 4 frames
    Format settings, GOP : M=8, N=24
    Codec ID : 27
    Duration : 3mn 36s
    Bit rate : 8 413 Kbps
    Width : 1 920 pixels
    Height : 1 080 pixels
    Display aspect ratio : 16:9
    Frame rate : 25.000 fps
    Standard : Component
    Color space : YUV
    Chroma subsampling : 4:2:0
    Bit depth : 8 bits
    Scan type : MBAFF
    Scan order : Top Field First
    Bits/(Pixel*Frame) : 0.162
    Stream size : 217 MiB (92%)
    Color primaries : BT.709
    Transfer characteristics : BT.709
    Matrix coefficients : BT.709
    Color range : Limited

    Audio
    ID : 121 (0x79)
    Menu ID : 8001 (0x1F41)
    Format : AC-3
    Format/Info : Audio Coding 3
    Mode extension : CM (complete main)
    Format settings, Endianness : Big
    Codec ID : 6
    Duration : 3mn 36s
    Bit rate mode : Constant
    Bit rate : 256 Kbps
    Channel(s) : 2 channels
    Channel positions : Front: L R
    Sampling rate : 48.0 KHz
    Bit depth : 16 bits
    Compression mode : Lossy
    Delay relative to video : 20ms
    Stream size : 6.62 MiB (3%)
    Language : English
    Language, more info : Clean effects

    Credits to Olgold

    SERVER: MEGA / PASSWORD: DETOX

    Hidden Content:
    You must reply before you can see the hidden data contained here.
     
    rhea, 777josem and CELOBRAZiL like this.
  2. 777josem

    777josem ProRes 1080p LPCM V . I . P. Uploader

    Joined:
    Sep 1, 2014
    Messages:
    3,523
    Likes Received:
    2,687
    :happy: Thank you so much!
     
  3. LLAVE1

    LLAVE1 Member

    Joined:
    Dec 4, 2013
    Messages:
    52
    Likes Received:
    5
    thank you
     
  4. rhea

    rhea Well-Known Member

    Joined:
    Jan 6, 2014
    Messages:
    6,412
    Likes Received:
    607
    thank you so much! :)
     
  5. adam dark

    adam dark Video Music Lover <3 V . I . P.

    Joined:
    Dec 5, 2013
    Messages:
    2,597
    Likes Received:
    4,718
    thank you so much!
     
  6. GuruPitka

    GuruPitka Member

    Joined:
    Apr 3, 2014
    Messages:
    182
    Likes Received:
    2
    thank you very much
     
  7. faz

    faz Member

    Joined:
    Jan 9, 2014
    Messages:
    269
    Likes Received:
    2
    thank you
     
  8. mizdot

    mizdot Well-Known Member

    Joined:
    Nov 13, 2014
    Messages:
    1,703
    Likes Received:
    36
    tnx man
     
  9. slill

    slill Active Member

    Joined:
    Jul 25, 2014
    Messages:
    1,034
    Likes Received:
    15
    thanks
     
  10. Danielcha

    Danielcha Member

    Joined:
    Sep 20, 2014
    Messages:
    95
    Likes Received:
    0
    thanks so much
     
  11. andersom.bk

    andersom.bk Member

    Joined:
    Jul 11, 2014
    Messages:
    161
    Likes Received:
    5
    OBRIGADO VOU OLHAR AGORA
     
  12. Vinny

    Vinny Active Member

    Joined:
    Dec 26, 2013
    Messages:
    3,289
    Likes Received:
    20
    Thank U!
     
  13. chianafan

    chianafan Member

    Joined:
    May 20, 2015
    Messages:
    109
    Likes Received:
    0
    thank you
     
  14. furkan

    furkan Member

    Joined:
    Oct 9, 2015
    Messages:
    248
    Likes Received:
    7
    thnks youuuu
     
  15. HDMjuzik

    HDMjuzik Member

    Joined:
    Feb 4, 2015
    Messages:
    59
    Likes Received:
    2
    thank you very much!
     
  16. yhkim

    yhkim Active Member

    Joined:
    Nov 19, 2013
    Messages:
    779
    Likes Received:
    7
    thank you so much
     
  17. nolynexor88

    nolynexor88 Well-Known Member

    Joined:
    Sep 29, 2015
    Messages:
    1,119
    Likes Received:
    69
     
  18. sebasswift

    sebasswift Member

    Joined:
    Oct 26, 2015
    Messages:
    117
    Likes Received:
    4
    LOSE MY BREATH
     
  19. BetaKsi

    BetaKsi Well-Known Member

    Joined:
    Oct 18, 2015
    Messages:
    1,069
    Likes Received:
    389
    Thank you))
     
    kweenbey likes this.
  20. Snorom6

    Snorom6 Well-Known Member V . I . P. Uploader

    Joined:
    Dec 17, 2015
    Messages:
    4,242
    Likes Received:
    4,780