BDRiP Destiny's Child - Live in Atlanta 2006 BluRay 720p DTS

Discussion in 'BLU-RAY' started by hanshermann, Jun 30, 2017.

  1. hanshermann

    hanshermann Well-Known Member Uploader

    Joined:
    Aug 24, 2016
    Messages:
    5,240
    Likes Received:
    4,898
    [​IMG]
    Destiny's Child - Live in Atlanta 2006 BluRay 720p DTS
    Code:
    General
    Unique ID                   : 179839590248834096354432120404778564596 (0x874BD85F5514172E8D1EC2D5B14E3BF4)
    Complete name               : Destiny's.Child.Live.in.Atlanta.2006.BluRay.720p.DTS\Destiny`s Child - Live in Atlanta.mkv
    Format                      : Matroska
    Format version              : Version 1
    File size                   : 7.95 GiB
    Duration                    : 1 h 50 min
    Overall bit rate            : 10.3 Mb/s
    Encoded date                : UTC 2007-07-28 13:38:26
    Writing application         : mkvmerge v2.0.2 ('You're My Flame') built on Feb 21 2007 23:40:55
    Writing library             : libebml v0.7.7 + libmatroska v0.8.1
    
    Video
    ID                          : 1
    Format                      : AVC
    Format/Info                 : Advanced Video Codec
    Format profile              : [email protected]
    Format settings, CABAC      : Yes
    Format settings, ReFrames   : 8 frames
    Codec ID                    : V_MPEG4/ISO/AVC
    Duration                    : 1 h 50 min
    Bit rate                    : 8 758 kb/s
    Width                       : 1 280 pixels
    Height                      : 720 pixels
    Display aspect ratio        : 16:9
    Frame rate mode             : Constant
    Frame rate                  : 29.970 (30000/1001) FPS
    Color space                 : YUV
    Chroma subsampling          : 4:2:0
    Bit depth                   : 8 bits
    Scan type                   : Progressive
    Bits/(Pixel*Frame)          : 0.317
    Stream size                 : 6.62 GiB (83%)
    Title                       : Destiny's Child: Live in Atlanta (2006)
    Writing library             : x264 core 55 svn-663
    
    Language                    : English
    Default                     : Yes
    Forced                      : No
    
    Audio
    ID                          : 2
    Format                      : DTS
    Format/Info                 : Digital Theater Systems
    Mode                        : 16
    Format settings, Endianness : Big
    Codec ID                    : A_DTS
    Duration                    : 1 h 50 min
    Bit rate mode               : Constant
    Bit rate                    : 1 510 kb/s
    Channel(s)                  : 6 channels
    Channel positions           : Front: L C R, Side: L R, LFE
    Sampling rate               : 48.0 kHz
    Frame rate                  : 93.750 FPS (512 spf)
    Bit depth                   : 24 bits
    Compression mode            : Lossy
    Stream size                 : 1.17 GiB (15%)
    Title                       : DTS 5.1 ~1.5mb/s
    Language                    : English
    Default                     : Yes
    Forced                      : No
    
    Hidden Content:
    You must reply before you can see the hidden data contained here.
     
    Last edited: Sep 1, 2017
  2. Loading...


  3. lim

    lim Well-Known Member

    Joined:
    Nov 8, 2013
    Messages:
    1,813
    Likes Received:
    36
    thanks
     
  4. exterminador

    exterminador Well-Known Member

    Joined:
    Jul 3, 2016
    Messages:
    1,876
    Likes Received:
    171
  5. santa321

    santa321 Well-Known Member

    Joined:
    Dec 7, 2013
    Messages:
    1,511
    Likes Received:
    55
    thank you
     
  6. CELOBRAZiL

    CELOBRAZiL Well-Known Member Capper V . I . P. Donor

    Joined:
    Oct 2, 2013
    Messages:
    4,251
    Likes Received:
    13,401
    Thanks! :)
     
  7. yhnujm1

    yhnujm1 Member

    Joined:
    Jun 26, 2014
    Messages:
    359
    Likes Received:
    5
    thank you
     
  8. buionightlife

    buionightlife Member

    Joined:
    Dec 4, 2016
    Messages:
    39
    Likes Received:
    3
    Thanks
     
  9. pfalconer

    pfalconer Member

    Joined:
    Mar 17, 2017
    Messages:
    65
    Likes Received:
    2
    thanks
     
  10. Danny82

    Danny82 Well-Known Member

    Joined:
    May 28, 2016
    Messages:
    2,080
    Likes Received:
    547
    ¡Great! Thank you so much!
     
  11. dangminh9999

    dangminh9999 Member

    Joined:
    Aug 19, 2014
    Messages:
    112
    Likes Received:
    3
    thank you
     
  12. andersom.bk

    andersom.bk Member

    Joined:
    Jul 11, 2014
    Messages:
    162
    Likes Received:
    5
    thanks i lov DC3
     
  13. beyreleases

    beyreleases Member

    Joined:
    Jul 7, 2017
    Messages:
    150
    Likes Received:
    4
    thanjs
     
  14. slapatologist

    slapatologist Active Member

    Joined:
    Jan 30, 2017
    Messages:
    136
    Likes Received:
    57
  15. yoereyesr21

    yoereyesr21 Active Member

    Joined:
    Mar 12, 2016
    Messages:
    206
    Likes Received:
    28
  16. carlos69

    carlos69 Active Member

    Joined:
    Dec 17, 2013
    Messages:
    976
    Likes Received:
    85
    Thank you
     
  17. jorotre

    jorotre Member

    Joined:
    Dec 21, 2015
    Messages:
    396
    Likes Received:
    4
    THANKS
     
  18. Timsi

    Timsi Member

    Joined:
    Jun 17, 2016
    Messages:
    434
    Likes Received:
    22
    Thanks
     
  19. iamderonjordan

    iamderonjordan Member

    Joined:
    Jan 8, 2017
    Messages:
    65
    Likes Received:
    7
    Thanks
     
  20. anunnaki

    anunnaki Member

    Joined:
    Nov 19, 2016
    Messages:
    296
    Likes Received:
    8
  21. Nicolas Martins

    Nicolas Martins st jude

    Joined:
    Sep 22, 2014
    Messages:
    994
    Likes Received:
    111
    Th
    Thanks