WEB-RiP Destiny's Child - Live in Atlanta 2006 1080p AMZN WEB-DL DD+2.0.x264-monkee

Discussion in 'HD Live Performances' started by hanshermann, Sep 22, 2017.

  1. hanshermann

    hanshermann Well-Known Member Uploader

    Joined:
    Aug 24, 2016
    Messages:
    6,309
    Likes Received:
    9,009
    [​IMG]

    Destiny's Child - Live in Atlanta 2006 1080p AMZN WEB-DL DD+2.0.x264-monkee

    Code:
    General
    Unique ID                   : 187505935710946985692365055564412153329 (0x8D105462DE35C11EBEAC15123A00EDF1)
    Complete name               : Destiny's.Child-Live.in.Atlanta.2006.1080p.AMZN.WEB-DL.DD+2.0.x264-monkee.mkv
    Format                      : Matroska
    Format version              : Version 4 / Version 2
    File size                   : 13.5 GiB
    Duration                    : 2 h 35 min
    Overall bit rate mode       : Variable
    Overall bit rate            : 12.4 Mb/s
    Writing application         : mkvmerge v12.0.0 ('Trust / Lust') 64bit
    Writing library             : libebml v1.3.4 + libmatroska v1.4.5
    
    Video
    ID                          : 1
    Format                      : AVC
    Format/Info                 : Advanced Video Codec
    Format profile              : High@L4
    Format settings, CABAC      : Yes
    Format settings, ReFrames   : 4 frames
    Codec ID                    : V_MPEG4/ISO/AVC
    Duration                    : 2 h 35 min
    Bit rate mode               : Variable
    Bit rate                    : 11.9 Mb/s
    Maximum bit rate            : 15.0 Mb/s
    Width                       : 1 920 pixels
    Height                      : 1 080 pixels
    Display aspect ratio        : 16:9
    Frame rate mode             : Constant
    Frame rate                  : 29.970 (30000/1001) FPS
    Color space                 : YUV
    Chroma subsampling          : 4:2:0
    Bit depth                   : 8 bits
    Scan type                   : Progressive
    Bits/(Pixel*Frame)          : 0.192
    Stream size                 : 12.9 GiB (96%)
    Writing library             : x264 core 148 r2623 d5b2374
    
    Default                     : Yes
    Forced                      : No
    Color range                 : Limited
    Color primaries             : BT.709
    Transfer characteristics    : BT.709
    Matrix coefficients         : BT.709
    Statistics Tags Issue       : mkvmerge v12.0.0 ('Trust / Lust') 64bit 2017-06-25 02:33:01 / mkvmerge v12.0.0 ('Trust / Lust') 64bit
    FromStats_BitRate           : 12169774
    FromStats_Duration          : 02:35:21.779000000
    FromStats_FrameCount        : 279374
    FromStats_StreamSize        : 14180493349
    
    Audio
    ID                          : 2
    Format                      : E-AC-3
    Format/Info                 : Enhanced Audio Coding 3
    Format settings, Endianness : Big
    Codec ID                    : A_EAC3
    Duration                    : 2 h 35 min
    Bit rate mode               : Constant
    Bit rate                    : 224 kb/s
    Channel(s)                  : 2 channels
    Channel positions           : Front: L R
    Sampling rate               : 48.0 kHz
    Frame rate                  : 187.500 FPS (256 spf)
    Compression mode            : Lossy
    Stream size                 : 249 MiB (2%)
    Language                    : English
    Service kind                : Complete Main
    Default                     : Yes
    Forced                      : No
    Statistics Tags Issue       : mkvmerge v12.0.0 ('Trust / Lust') 64bit 2017-06-25 02:33:01 / mkvmerge v12.0.0 ('Trust / Lust') 64bit
    FromStats_BitRate           : 224000
    FromStats_Duration          : 02:35:21.728000000
    FromStats_FrameCount        : 291304
    FromStats_StreamSize        : 261008384
    
    Text
    ID                          : 3
    Format                      : UTF-8
    Codec ID                    : S_TEXT/UTF8
    Codec ID/Info               : UTF-8 Plain Text
    Language                    : English
    Default                     : No
    Forced                      : No
    Statistics Tags Issue       : mkvmerge v12.0.0 ('Trust / Lust') 64bit 2017-06-25 02:33:01 / mkvmerge v12.0.0 ('Trust / Lust') 64bit
    FromStats_BitRate           : 86
    FromStats_Duration          : 02:35:20.267000000
    FromStats_FrameCount        : 3139
    FromStats_StreamSize        : 101151
    
    Hidden Content:
    You must either reply or click 'Like' to see the hidden information contained here.
     
    Last edited: Apr 14, 2018
    ZShare, kismakk, artlover and 38 others like this.
  2. Loading...


  3. exterminador

    exterminador Well-Known Member

    Joined:
    Jul 3, 2016
    Messages:
    2,252
    Likes Received:
    193
  4. leomtc

    leomtc Member

    Joined:
    Sep 30, 2016
    Messages:
    155
    Likes Received:
    17
    Thanks
     
  5. lim

    lim Well-Known Member

    Joined:
    Nov 8, 2013
    Messages:
    2,026
    Likes Received:
    76
    thanks
     
  6. mcslimshady

    mcslimshady Well-Known Member

    Joined:
    Jun 20, 2016
    Messages:
    1,761
    Likes Received:
    45
    thanks man
     
  7. Valdo

    Valdo Member

    Joined:
    May 18, 2015
    Messages:
    269
    Likes Received:
    14
    Thank you
     
  8. migsou

    migsou Member

    Joined:
    Oct 2, 2014
    Messages:
    466
    Likes Received:
    17
    thanx
     
  9. Adriano Everton

    Adriano Everton Well-Known Member

    Joined:
    Aug 25, 2014
    Messages:
    1,659
    Likes Received:
    176
  10. tf135

    tf135 Well-Known Member

    Joined:
    Nov 14, 2014
    Messages:
    3,064
    Likes Received:
    181
    thanks
     
  11. Pavulon

    Pavulon Well-Known Member Donor

    Joined:
    Mar 22, 2016
    Messages:
    4,479
    Likes Received:
    889
    thank you very much :d
     
  12. tranquanghuy0804

    tranquanghuy0804 Member

    Joined:
    Dec 15, 2016
    Messages:
    77
    Likes Received:
    1
  13. Tommyboy

    Tommyboy Active Member

    Joined:
    Oct 23, 2016
    Messages:
    893
    Likes Received:
    35
    G. Tanks
     
  14. Ross

    Ross Active Member

    Joined:
    Oct 19, 2014
    Messages:
    422
    Likes Received:
    56
    thanks
     
  15. kryza

    kryza Member

    Joined:
    Oct 23, 2013
    Messages:
    627
    Likes Received:
    21
    thank u
     
  16. shopangle20

    shopangle20 Member

    Joined:
    Sep 30, 2015
    Messages:
    202
    Likes Received:
    11
    thxxxxxxxxxxxxx
     
  17. apl3

    apl3 Active Member

    Joined:
    Jun 11, 2017
    Messages:
    981
    Likes Received:
    28
    thanks
     
  18. ARTI

    ARTI Yonce

    Joined:
    May 21, 2017
    Messages:
    329
    Likes Received:
    7
    thanks
     
  19. eldomi13

    eldomi13 Member

    Joined:
    Jun 26, 2017
    Messages:
    158
    Likes Received:
    21
    Woow s cool! thnaks :)
     
  20. Chris

    Chris Active Member

    Joined:
    Oct 19, 2013
    Messages:
    737
    Likes Received:
    25
    Thank you
     
  21. hungquocphan

    hungquocphan Active Member

    Joined:
    Nov 1, 2013
    Messages:
    700
    Likes Received:
    36