Destiny's Child - Independent Women Part I (PARAMOUNTHD-1080i-DD2.0-Crusha)

Discussion in 'PARAMOUNT' started by Crusha, Mar 23, 2016.

  1. Crusha

    Crusha Well-Known Member Capper V . I . P.

    Joined:
    Oct 15, 2014
    Messages:
    2,355
    Likes Received:
    2,523
    [​IMG]

    Mediainfo
    General
    ID : 1 (0x1)
    Complete name : Destiny's Child - Independent Women Part I (PARAMOUNT.HD.1080i.DD2.0).-Crusha.ts
    Format : MPEG-TS
    File size : 102 MiB
    Duration : 3mn 56s
    Overall bit rate mode : Variable
    Overall bit rate : 3 630 Kbps

    Video
    ID : 2834 (0xB12)
    Menu ID : 1523 (0x5F3)
    Format : AVC
    Format/Info : Advanced Video Codec
    Format profile : High@L4
    Format settings, CABAC : Yes
    Format settings, ReFrames : 4 frames
    Codec ID : 27
    Duration : 3mn 56s
    Bit rate : 3 257 Kbps
    Width : 1 920 pixels
    Height : 1 080 pixels
    Display aspect ratio : 16:9
    Frame rate : 29.970 fps
    Standard : Component
    Color space : YUV
    Chroma subsampling : 4:2:0
    Bit depth : 8 bits
    Scan type : MBAFF
    Scan order : Top Field First
    Bits/(Pixel*Frame) : 0.052
    Stream size : 91.8 MiB (90%)
    Color range : Limited
    Color primaries : BT.709
    Transfer characteristics : BT.709
    Matrix coefficients : BT.709

    Audio
    ID : 3760 (0xEB0)
    Menu ID : 1523 (0x5F3)
    Format : AC-3
    Format/Info : Audio Coding 3
    Mode extension : CM (complete main)
    Format settings, Endianness : Big
    Codec ID : 6
    Duration : 3mn 56s
    Bit rate mode : Constant
    Bit rate : 192 Kbps
    Channel(s) : 2 channels
    Channel positions : Front: L R
    Sampling rate : 48.0 KHz
    Bit depth : 16 bits
    Compression mode : Lossy
    Stream size : 5.41 MiB (5%)
    Language : Spanish
    Hidden Content:
    You must reply before you can see the hidden data contained here.
    Password: crusha
     
    lyana94 likes this.
  2. Snorom6

    Snorom6 Well-Known Member V . I . P. Uploader

    Joined:
    Dec 17, 2015
    Messages:
    4,247
    Likes Received:
    4,878
  3. theclimb

    theclimb Active Member

    Joined:
    Dec 16, 2014
    Messages:
    698
    Likes Received:
    123
  4. brian182

    brian182 Well-Known Member

    Joined:
    Oct 14, 2013
    Messages:
    1,794
    Likes Received:
    72
    thanks!! lol
     
  5. Pavulon

    Pavulon Well-Known Member

    Joined:
    Mar 22, 2016
    Messages:
    2,795
    Likes Received:
    312
    thanks
     
  6. 江雨燃双鱼

    江雨燃双鱼 Active Member

    Joined:
    Apr 5, 2014
    Messages:
    613
    Likes Received:
    38
  7. willfierce4

    willfierce4 Member

    Joined:
    Jan 25, 2016
    Messages:
    82
    Likes Received:
    3
  8. tf135

    tf135 Well-Known Member

    Joined:
    Nov 14, 2014
    Messages:
    2,244
    Likes Received:
    126
    thank you
     
  9. Tiago

    Tiago Well-Known Member

    Joined:
    Dec 7, 2013
    Messages:
    1,470
    Likes Received:
    25
    thank you
     
  10. tapions

    tapions Active Member

    Joined:
    Aug 30, 2016
    Messages:
    898
    Likes Received:
    70
    gracias
     
  11. ALP3R

    ALP3R Member

    Joined:
    Apr 19, 2014
    Messages:
    127
    Likes Received:
    3
    thanks
     
  12. rikylouis14

    rikylouis14 Well-Known Member

    Joined:
    Jun 27, 2016
    Messages:
    717
    Likes Received:
    419
    good post
     
  13. serenity1203

    serenity1203 Member

    Joined:
    Sep 30, 2016
    Messages:
    61
    Likes Received:
    3
    yesssss
     
  14. danicoteca

    danicoteca Member

    Joined:
    Sep 10, 2016
    Messages:
    161
    Likes Received:
    17
  15. jumpylooy

    jumpylooy Member

    Joined:
    Dec 14, 2013
    Messages:
    38
    Likes Received:
    2
    thaaaaaaaanks
     
  16. nachostripped

    nachostripped Member

    Joined:
    Feb 5, 2015
    Messages:
    401
    Likes Received:
    13
    thank you
     
  17. putatzo

    putatzo Member

    Joined:
    Sep 6, 2016
    Messages:
    73
    Likes Received:
    1
    thank you so much <3
     
  18. DiVenturas

    DiVenturas Well-Known Member

    Joined:
    Oct 21, 2015
    Messages:
    2,704
    Likes Received:
    120
  19. hanshermann

    hanshermann Well-Known Member Uploader

    Joined:
    Aug 24, 2016
    Messages:
    4,658
    Likes Received:
    2,319
    wahts taht
     
  20. noriscout

    noriscout Active Member

    Joined:
    Apr 26, 2017
    Messages:
    290
    Likes Received:
    63
    Thanks, friendugan