Destiny's Child - Independent Women (Deluxe Music HD-1080i-DD2.0)-Olgold

Discussion in 'DELUXE MUSIC HD' started by Olgold, Aug 23, 2015.

  1. Olgold

    Olgold Well-Known Member Capper

    Joined:
    Aug 19, 2015
    Messages:
    386
    Likes Received:
    1,332
    [​IMG]
    General
    Format : MPEG-TS
    File size : 213 MiB
    Duration : 3mn 56s
    Overall bit rate mode : Variable
    Overall bit rate : 7 542 Kbps

    Video
    Format : AVC
    Format/Info : Advanced Video Codec
    Format profile : High@L4
    Format settings, CABAC : Yes
    Format settings, ReFrames : 4 frames
    Duration : 3mn 55s
    Bit rate : 6 782 Kbps
    Width : 1 280 pixels
    Height : 1 080 pixels
    Display aspect ratio : 16:9
    Frame rate : 25.000 fps
    Standard : Component
    Color space : YUV
    Chroma subsampling : 4:2:0
    Bit depth : 8 bits
    Scan type : Interlaced
    Scan order : Top Field First
    Bits/(Pixel*Frame) : 0.196
    Stream size : 190 MiB (89%)
    Color range : Limited

    Audio
    Format : AC-3
    Format/Info : Audio Coding 3
    Mode extension : CM (complete main)
    Format settings, Endianness : Big
    Duration : 3mn 56s
    Bit rate mode : Constant
    Bit rate : 384 Kbps
    Channel(s) : 2 channels
    Channel positions : Front: L R
    Sampling rate : 48.0 KHz
    Compression mode : Lossy
    Delay relative to video : 114ms
    Stream size : 10.8 MiB (5%)
    Language : German
    Language, more info : Clean effects

    Hidden Content:
    You must reply before you can see the hidden data contained here.
     
    polydown, revilo18, rhea and 3 others like this.
  2. Dreamer

    Dreamer Well-Known Member Capper Uploader

    Joined:
    Dec 4, 2014
    Messages:
    2,293
    Likes Received:
    2,138
    Thank you
     
  3. DETOX

    DETOX Well-Known Member V . I . P. Uploader

    Joined:
    Feb 20, 2014
    Messages:
    2,788
    Likes Received:
    15,151
    Thank you so much! :happy:
     
  4. Crusha

    Crusha Well-Known Member Capper

    Joined:
    Oct 15, 2014
    Messages:
    2,350
    Likes Received:
    2,176
    thank you
     
  5. Zatimi

    Zatimi Active Member

    Joined:
    Aug 27, 2014
    Messages:
    604
    Likes Received:
    67
    thanks a lot
     
  6. 江雨燃双鱼

    江雨燃双鱼 Active Member

    Joined:
    Apr 5, 2014
    Messages:
    595
    Likes Received:
    35
    thanks a lot
     
  7. chianafan

    chianafan Member

    Joined:
    May 20, 2015
    Messages:
    89
    Likes Received:
    0
    thank you
     
  8. rhea

    rhea Well-Known Member

    Joined:
    Jan 6, 2014
    Messages:
    5,406
    Likes Received:
    265
    thank you so much :)
     
  9. arnold

    arnold Member

    Joined:
    Oct 29, 2014
    Messages:
    232
    Likes Received:
    3
    thank you.
     
  10. miguelmr87

    miguelmr87 Active Member

    Joined:
    Dec 20, 2013
    Messages:
    473
    Likes Received:
    151
    thank you
     
  11. Snorom6

    Snorom6 Well-Known Member Uploader

    Joined:
    Dec 17, 2015
    Messages:
    4,245
    Likes Received:
    3,789
  12. dinhotwain

    dinhotwain Member

    Joined:
    Jan 1, 2015
    Messages:
    446
    Likes Received:
    11
    thank you
     
  13. jeffersonayu

    jeffersonayu Member

    Joined:
    Jan 12, 2016
    Messages:
    68
    Likes Received:
    0
    thank youu
     
  14. tsm897

    tsm897 Member

    Joined:
    Apr 16, 2014
    Messages:
    129
    Likes Received:
    3
    thank you
     
  15. yonita

    yonita Active Member

    Joined:
    Mar 7, 2016
    Messages:
    379
    Likes Received:
    26
    <3 gracias
     
  16. revilo18

    revilo18 Well-Known Member

    Joined:
    May 26, 2016
    Messages:
    1,310
    Likes Received:
    58
    THANK
     
  17. MCTR

    MCTR Member

    Joined:
    Feb 23, 2014
    Messages:
    280
    Likes Received:
    23
    thanks
     
  18. elejido10

    elejido10 Member

    Joined:
    Oct 27, 2013
    Messages:
    189
    Likes Received:
    0
    thank you
     
  19. Tiago

    Tiago Active Member

    Joined:
    Dec 7, 2013
    Messages:
    1,013
    Likes Received:
    13
    THANKS
     
  20. kate bluf

    kate bluf Member

    Joined:
    Oct 31, 2015
    Messages:
    124
    Likes Received:
    5