Destiny's Child - Independent Women (Deluxe Music HD-1080i-DD2.0)-Olgold

Discussion in 'DELUXE MUSIC HD' started by Olgold, Aug 23, 2015.

  1. Olgold

    Olgold Well-Known Member Capper

    Joined:
    Aug 19, 2015
    Messages:
    436
    Likes Received:
    1,677
    [​IMG]
    General
    Format : MPEG-TS
    File size : 213 MiB
    Duration : 3mn 56s
    Overall bit rate mode : Variable
    Overall bit rate : 7 542 Kbps

    Video
    Format : AVC
    Format/Info : Advanced Video Codec
    Format profile : [email protected]
    Format settings, CABAC : Yes
    Format settings, ReFrames : 4 frames
    Duration : 3mn 55s
    Bit rate : 6 782 Kbps
    Width : 1 280 pixels
    Height : 1 080 pixels
    Display aspect ratio : 16:9
    Frame rate : 25.000 fps
    Standard : Component
    Color space : YUV
    Chroma subsampling : 4:2:0
    Bit depth : 8 bits
    Scan type : Interlaced
    Scan order : Top Field First
    Bits/(Pixel*Frame) : 0.196
    Stream size : 190 MiB (89%)
    Color range : Limited

    Audio
    Format : AC-3
    Format/Info : Audio Coding 3
    Mode extension : CM (complete main)
    Format settings, Endianness : Big
    Duration : 3mn 56s
    Bit rate mode : Constant
    Bit rate : 384 Kbps
    Channel(s) : 2 channels
    Channel positions : Front: L R
    Sampling rate : 48.0 KHz
    Compression mode : Lossy
    Delay relative to video : 114ms
    Stream size : 10.8 MiB (5%)
    Language : German
    Language, more info : Clean effects

    Hidden Content:
    You must reply before you can see the hidden data contained here.
     
    polydown, revilo18, rhea and 3 others like this.
  2. Dreamer

    Dreamer Lana Del Rey ♥ Halsey Capper V . I . P. Uploader

    Joined:
    Dec 4, 2014
    Messages:
    2,809
    Likes Received:
    3,940
    Thank you
     
  3. DETOX

    DETOX K-POP fan ♡ VIXX V . I . P. Uploader

    Joined:
    Feb 20, 2014
    Messages:
    3,337
    Likes Received:
    23,747
    Thank you so much! :happy:
     
  4. Crusha

    Crusha Well-Known Member Capper V . I . P.

    Joined:
    Oct 15, 2014
    Messages:
    2,356
    Likes Received:
    2,523
    thank you
     
  5. Zatimi

    Zatimi Active Member

    Joined:
    Aug 27, 2014
    Messages:
    719
    Likes Received:
    131
    thanks a lot
     
  6. 江雨燃双鱼

    江雨燃双鱼 Active Member

    Joined:
    Apr 5, 2014
    Messages:
    613
    Likes Received:
    38
    thanks a lot
     
  7. chianafan

    chianafan Member

    Joined:
    May 20, 2015
    Messages:
    109
    Likes Received:
    0
    thank you
     
  8. rhea

    rhea Well-Known Member

    Joined:
    Jan 6, 2014
    Messages:
    6,637
    Likes Received:
    683
    thank you so much :)
     
  9. arnold

    arnold Member

    Joined:
    Oct 29, 2014
    Messages:
    239
    Likes Received:
    4
    thank you.
     
  10. miguelmr87

    miguelmr87 Active Member

    Joined:
    Dec 20, 2013
    Messages:
    531
    Likes Received:
    166
    thank you
     
  11. Snorom6

    Snorom6 Well-Known Member V . I . P. Uploader

    Joined:
    Dec 17, 2015
    Messages:
    4,247
    Likes Received:
    4,882
  12. dinhotwain

    dinhotwain Member

    Joined:
    Jan 1, 2015
    Messages:
    585
    Likes Received:
    22
    thank you
     
  13. jeffersonayu

    jeffersonayu Member

    Joined:
    Jan 12, 2016
    Messages:
    82
    Likes Received:
    2
    thank youu
     
  14. tsm897

    tsm897 Member

    Joined:
    Apr 16, 2014
    Messages:
    136
    Likes Received:
    4
    thank you
     
  15. yonita

    yonita Active Member

    Joined:
    Mar 7, 2016
    Messages:
    429
    Likes Received:
    40
    <3 gracias
     
  16. revilo18

    revilo18 Well-Known Member

    Joined:
    May 26, 2016
    Messages:
    1,851
    Likes Received:
    83
    THANK
     
  17. MCTR

    MCTR Active Member

    Joined:
    Feb 23, 2014
    Messages:
    295
    Likes Received:
    40
    thanks
     
  18. elejido10

    elejido10 Member

    Joined:
    Oct 27, 2013
    Messages:
    189
    Likes Received:
    0
    thank you
     
  19. Tiago

    Tiago Well-Known Member

    Joined:
    Dec 7, 2013
    Messages:
    1,470
    Likes Received:
    25
    THANKS
     
  20. kate bluf

    kate bluf Member

    Joined:
    Oct 31, 2015
    Messages:
    133
    Likes Received:
    5