Depeche Mode - Just Can't Get Enough (MTVPulse-1080i-DD2.0)-Olgold

Discussion in 'MTV PULSE HD' started by Olgold, Aug 27, 2015.

  1. Olgold

    Olgold Well-Known Member Capper

    Joined:
    Aug 19, 2015
    Messages:
    435
    Likes Received:
    1,500
    [​IMG]
    General
    Format : MPEG-TS
    File size : 222 MiB
    Duration : 3mn 34s
    Overall bit rate mode : Variable
    Overall bit rate : 8 675 Kbps

    Video
    Format : AVC
    Format/Info : Advanced Video Codec
    Format profile : [email protected]
    Format settings, CABAC : Yes
    Format settings, ReFrames : 4 frames
    Duration : 3mn 34s
    Bit rate : 7 988 Kbps
    Width : 1 920 pixels
    Height : 1 080 pixels
    Display aspect ratio : 16:9
    Frame rate : 25.000 fps
    Standard : Component
    Color space : YUV
    Chroma subsampling : 4:2:0
    Bit depth : 8 bits
    Scan type : MBAFF
    Scan order : Top Field First
    Bits/(Pixel*Frame) : 0.154
    Stream size : 204 MiB (92%)
    Color range : Limited

    Audio
    Format : AC-3
    Format/Info : Audio Coding 3
    Mode extension : CM (complete main)
    Format settings, Endianness : Big
    Duration : 3mn 34s
    Bit rate mode : Constant
    Bit rate : 256 Kbps
    Channel(s) : 2 channels
    Channel positions : Front: L R
    Sampling rate : 48.0 KHz
    Compression mode : Lossy
    Delay relative to video : 152ms
    Stream size : 6.54 MiB (3%)
    Language : French

    Hidden Content:
    You must reply before you can see the hidden data contained here.
     
    couillerot, Yuri, cegs9 and 4 others like this.
  2. rhea

    rhea Well-Known Member

    Joined:
    Jan 6, 2014
    Messages:
    5,648
    Likes Received:
    365
    thank you so much
     
  3. Vasiliy

    Vasiliy Member

    Joined:
    Jul 8, 2014
    Messages:
    75
    Likes Received:
    14
    thanks so much. I'm a huge fan of DM too. hope to see more
     
  4. wwepan

    wwepan Member

    Joined:
    Oct 21, 2015
    Messages:
    34
    Likes Received:
    0
    Thank You
     
  5. nolynexor88

    nolynexor88 Active Member

    Joined:
    Sep 29, 2015
    Messages:
    964
    Likes Received:
    37
     
  6. Flaxdevil

    Flaxdevil Member

    Joined:
    May 25, 2014
    Messages:
    210
    Likes Received:
    6
    old school rocks!
     
  7. slash

    slash Member

    Joined:
    Mar 17, 2016
    Messages:
    63
    Likes Received:
    1
    thanks
     
  8. ors72

    ors72 New Member

    Joined:
    Feb 26, 2016
    Messages:
    18
    Likes Received:
    0
    muchas gracias
     
  9. panchozua13

    panchozua13 Member

    Joined:
    Jun 25, 2016
    Messages:
    178
    Likes Received:
    4
    grcias por el video
     
  10. tapions

    tapions Active Member

    Joined:
    Aug 30, 2016
    Messages:
    823
    Likes Received:
    60
    gracias
     
  11. imedia00

    imedia00 New Member

    Joined:
    Oct 5, 2016
    Messages:
    6
    Likes Received:
    0
    thanks
     
  12. jms_salta

    jms_salta Member

    Joined:
    Nov 9, 2014
    Messages:
    33
    Likes Received:
    0
    Thank You
     
  13. cegs9

    cegs9 Member

    Joined:
    Mar 2, 2016
    Messages:
    220
    Likes Received:
    12
    thanks!
     
  14. revilo18

    revilo18 Well-Known Member

    Joined:
    May 26, 2016
    Messages:
    1,513
    Likes Received:
    65
    THANKKK
     
  15. couillerot

    couillerot Member

    Joined:
    Sep 7, 2016
    Messages:
    96
    Likes Received:
    3
    thanks !