WEB-RiP Demi Lovato Simply Complicated - Official Documentary 2160p Youtube

Discussion in 'Documentaries' started by Dfrazzer, Oct 17, 2017.

  1. Dfrazzer

    Dfrazzer Super Moderator Staff Member Super Moderator Capper V . I . P. Donor

    Joined:
    Nov 4, 2013
    Messages:
    4,970
    Likes Received:
    10,855
    [​IMG] [​IMG] [​IMG] [​IMG] [​IMG] [​IMG]

    Code:
    General
    Complete name : E:\X DEMI VIDS\Demi Lovato Simply Complicated - Official Documentary.mp4
    Format : MPEG-4
    Format profile : Base Media
    Codec ID : isom (isom/iso2/avc1/mp41)
    File size : 8.49 GiB
    Duration : 1 h 18 min
    Overall bit rate : 15.5 Mb/s
    Writing application : Lavf56.40.101
    
    Video
    ID : 1
    Format : AVC
    Format/Info : Advanced Video Codec
    Format profile : [email protected]
    Format settings, CABAC : No
    Format settings, ReFrames : 2 frames
    Codec ID : avc1
    Codec ID/Info : Advanced Video Coding
    Duration : 1 h 18 min
    Bit rate : 15.4 Mb/s
    Width : 3 840 pixels
    Height : 2 160 pixels
    Display aspect ratio : 16:9
    Frame rate mode : Variable
    Frame rate : 23.976 FPS
    Minimum frame rate : 23.974 FPS
    Maximum frame rate : 90 000.000 FPS
    Color space : YUV
    Chroma subsampling : 4:2:0
    Bit depth : 8 bits
    Scan type : Progressive
    Bits/(Pixel*Frame) : 0.077
    Stream size : 8.42 GiB (99%)
    Color range : Limited
    Color primaries : BT.709
    Transfer characteristics : BT.709
    Matrix coefficients : BT.709
    
    Audio
    ID : 2
    Format : AAC
    Format/Info : Advanced Audio Codec
    Format profile : LC
    Codec ID : 40
    Duration : 1 h 18 min
    Bit rate mode : Constant
    Bit rate : 128 kb/s
    Channel(s) : 2 channels
    Channel positions : Front: L R
    Sampling rate : 44.1 kHz
    Frame rate : 43.066 FPS (1024 spf)
    Compression mode : Lossy
    Stream size : 71.5 MiB (1%)
    Default : Yes
    Alternate group : 1
    Hidden Content:
    You must reply before you can see the hidden data contained here.
    Ripped by me.
     
  2. Loading...


  3. thinkingdualipa

    thinkingdualipa Member

    Joined:
    Jun 26, 2017
    Messages:
    263
    Likes Received:
    21
    thaaank youuuu!! love youuuu xx.
     
  4. edgar

    edgar Well-Known Member V . I . P.

    Joined:
    Oct 12, 2013
    Messages:
    1,803
    Likes Received:
    1,785
    Thank you very much for uploading it in 4k :love::love::love::love::love::love::love::love::love:
     
  5. johny

    johny Member

    Joined:
    Jan 26, 2015
    Messages:
    274
    Likes Received:
    7
    Thank you
     
  6. aturner18

    aturner18 Well-Known Member

    Joined:
    Oct 2, 2014
    Messages:
    1,384
    Likes Received:
    128
    how can you rip from youtube in 4K I had trail that ripped one file and everything even the video on my laptop shows 1080p
     
  7. maria paula

    maria paula Member

    Joined:
    Dec 8, 2013
    Messages:
    170
    Likes Received:
    11
  8. marcelodc_

    marcelodc_ Member

    Joined:
    Oct 23, 2013
    Messages:
    192
    Likes Received:
    2
    thankssss
     
  9. Bouncer

    Bouncer Member

    Joined:
    Jan 5, 2016
    Messages:
    509
    Likes Received:
    13
    tks tks
     
  10. Dfrazzer

    Dfrazzer Super Moderator Staff Member Super Moderator Capper V . I . P. Donor

    Joined:
    Nov 4, 2013
    Messages:
    4,970
    Likes Received:
    10,855
    I used 4K Video Downloader to get the video.
     
  11. chinmusic

    chinmusic New Member

    Joined:
    Jun 2, 2016
    Messages:
    21
    Likes Received:
    1
    thank you!!!
     
  12. max.py2017

    max.py2017 Member

    Joined:
    Mar 26, 2017
    Messages:
    39
    Likes Received:
    4
  13. nino.navy

    nino.navy Well-Known Member

    Joined:
    May 30, 2014
    Messages:
    2,443
    Likes Received:
    99
    thanks very much :)
     
  14. zacharypasha

    zacharypasha Member

    Joined:
    Aug 12, 2016
    Messages:
    32
    Likes Received:
    0
  15. franciscosimoessantos

    franciscosimoessantos Member

    Joined:
    Apr 7, 2014
    Messages:
    97
    Likes Received:
    10
    trkttt
     
  16. jaz12345

    jaz12345 Member

    Joined:
    Apr 9, 2017
    Messages:
    141
    Likes Received:
    3
    thanks
     
  17. alex

    alex Well-Known Member

    Joined:
    Nov 21, 2013
    Messages:
    4,573
    Likes Received:
    370
    thank you
     
  18. alexdoci

    alexdoci Member

    Joined:
    Jun 25, 2017
    Messages:
    47
    Likes Received:
    0
    THANK YOU!
     
  19. ERSHU2012

    ERSHU2012 Member

    Joined:
    Aug 17, 2017
    Messages:
    295
    Likes Received:
    5
    THANKS!
     
  20. ROCK500

    ROCK500 Member

    Joined:
    Aug 5, 2017
    Messages:
    32
    Likes Received:
    2
    T
    Thank You Very Much
     
  21. andersonxjunior

    andersonxjunior Active Member

    Joined:
    Feb 26, 2016
    Messages:
    253
    Likes Received:
    90
    It seems like there is another version of it. A new one with exclusive parts. Can you get it?