WEB-RiP Demi Lovato - Simply Complicated Deleted Scenes 1080p YouTube HDMania

Discussion in 'Documentaries' started by Dfrazzer, Feb 6, 2018.

  1. Dfrazzer

    Dfrazzer Super Moderator Staff Member Super Moderator Capper V . I . P. Donor

    Joined:
    Nov 4, 2013
    Messages:
    5,438
    Likes Received:
    12,456
    [​IMG] [​IMG] [​IMG] [​IMG]

    Code:
    General
    Complete name : E:\Demi Lovato - Simply Complicated Deleted Scenes 1080p YouTube HDMania.mp4
    Format : MPEG-4
    Format profile : Base Media
    Codec ID : isom (isom/iso2/avc1/mp41)
    File size : 350 MiB
    Duration : 15 min 42 s
    Overall bit rate : 3 116 kb/s
    Writing application : Lavf56.40.101
    
    Video
    ID : 1
    Format : AVC
    Format/Info : Advanced Video Codec
    Format profile : High@L4
    Format settings, CABAC : Yes
    Format settings, ReFrames : 2 frames
    Codec ID : avc1
    Codec ID/Info : Advanced Video Coding
    Duration : 15 min 42 s
    Bit rate : 2 983 kb/s
    Width : 1 920 pixels
    Height : 1 080 pixels
    Display aspect ratio : 16:9
    Frame rate mode : Variable
    Frame rate : 25.680 FPS
    Minimum frame rate : 25.678 FPS
    Maximum frame rate : 90 000.000 FPS
    Color space : YUV
    Chroma subsampling : 4:2:0
    Bit depth : 8 bits
    Scan type : Progressive
    Bits/(Pixel*Frame) : 0.056
    Stream size : 335 MiB (96%)
    Color range : Limited
    Color primaries : BT.709
    Transfer characteristics : BT.709
    Matrix coefficients : BT.709
    
    Audio
    ID : 2
    Format : AAC
    Format/Info : Advanced Audio Codec
    Format profile : LC
    Codec ID : 40
    Duration : 15 min 42 s
    Bit rate mode : Constant
    Bit rate : 126 kb/s
    Channel(s) : 2 channels
    Channel positions : Front: L R
    Sampling rate : 44.1 kHz
    Frame rate : 43.066 FPS (1024 spf)
    Compression mode : Lossy
    Stream size : 14.1 MiB (4%)
    Default : Yes
    Alternate group : 1
    Hidden Content:
    You must reply before you can see the hidden data contained here.
    Credit to original ripper.
     
  2. Loading...


  3. bruno1901

    bruno1901 Active Member

    Joined:
    Dec 9, 2015
    Messages:
    737
    Likes Received:
    96
    :love::love:Thank you very much :love:
     
  4. czosnek

    czosnek Member

    Joined:
    Nov 6, 2015
    Messages:
    294
    Likes Received:
    15
    Thanks!!!
     
  5. Official Videos

    Official Videos Member

    Joined:
    Dec 1, 2015
    Messages:
    396
    Likes Received:
    17
  6. flickervinyl

    flickervinyl Active Member

    Joined:
    Nov 28, 2017
    Messages:
    305
    Likes Received:
    113
    :love::love:
     
  7. flickervinyl

    flickervinyl Active Member

    Joined:
    Nov 28, 2017
    Messages:
    305
    Likes Received:
    113
    whoever ripped this has a big bill to pay :tearsofjoy::tearsofjoy: (@ 1:48)
     
  8. Hyrus

    Hyrus Arianator / Selenator / Victorian / Saxobeat / LBS Donor

    Joined:
    Feb 9, 2015
    Messages:
    1,431
    Likes Received:
    1,372
    Thanks a lot for Demi :D:victory:
     
  9. DonWal

    DonWal Well-Known Member Capper V . I . P.

    Joined:
    May 11, 2015
    Messages:
    1,133
    Likes Received:
    2,628
    Thank you!
     
  10. nino.navy

    nino.navy Well-Known Member

    Joined:
    May 30, 2014
    Messages:
    2,981
    Likes Received:
    178
    thanks a lot for demi :)
     
  11. franklele

    franklele Well-Known Member

    Joined:
    Nov 11, 2013
    Messages:
    2,449
    Likes Received:
    150
    thank you very much
     
  12. johny

    johny Member

    Joined:
    Jan 26, 2015
    Messages:
    428
    Likes Received:
    13
    Thank you
     
  13. vena

    vena Member

    Joined:
    Sep 22, 2016
    Messages:
    109
    Likes Received:
    3
    thanks
     
  14. Donkey123

    Donkey123 Member

    Joined:
    May 4, 2014
    Messages:
    174
    Likes Received:
    9
    thank you so much
     
  15. carlos69

    carlos69 Well-Known Member

    Joined:
    Dec 17, 2013
    Messages:
    1,257
    Likes Received:
    92
    Thanks
     
  16. tnucarse

    tnucarse Member

    Joined:
    Jun 2, 2015
    Messages:
    183
    Likes Received:
    1
  17. mizdot

    mizdot Well-Known Member

    Joined:
    Nov 13, 2014
    Messages:
    2,758
    Likes Received:
    118
    tnx man
     
  18. Ramon

    Ramon Member

    Joined:
    Feb 26, 2018
    Messages:
    296
    Likes Received:
    4
    obrigado
     
  19. Ramon

    Ramon Member

    Joined:
    Feb 26, 2018
    Messages:
    296
    Likes Received:
    4
    obrigado
     
  20. mateusnicolas

    mateusnicolas Member

    Joined:
    Dec 4, 2017
    Messages:
    26
    Likes Received:
    30
  21. jison

    jison Active Member

    Joined:
    Oct 14, 2015
    Messages:
    748
    Likes Received:
    33
    thanx