Demi Lovato - Neon Lights (VIVAHD-1080i-DD2.0-Djodjara)-HDMania

Discussion in 'VIVA HD' started by Djodjara, Jan 23, 2015.

  1. Djodjara

    Djodjara Gwen Fan Capper

    Joined:
    Sep 6, 2014
    Messages:
    659
    Likes Received:
    1,092
    Demi Lovato - Neon Lights (VIVA HD-1080i-Djodjara)-HDMania

    [​IMG]
    [​IMG]

    General:
    ID : 1 (0x1)
    Format : MPEG-TS
    File size : 249 MiB
    Duration : 3mn 51s
    Overall bit rate mode : Variable
    Overall bit rate : 9 045 Kbps

    Video:
    ID : 528 (0x210)
    Menu ID : 1 (0x1)
    Format : AVC
    Format/Info : Advanced Video Codec
    Format profile : [email protected]
    Format settings, CABAC : Yes
    Format settings, ReFrames : 3 frames
    Codec ID : 27
    Duration : 3mn 51s
    Bit rate : 8 146 Kbps
    Width : 1 920 pixels
    Height : 1 080 pixels
    Display aspect ratio : 16:9
    Frame rate : 25.000 fps
    Standard : Component
    Color space : YUV
    Chroma subsampling : 4:2:0
    Bit depth : 8 bits
    Scan type : Interlaced
    Bits/(Pixel*Frame) : 0.157
    Stream size : 224 MiB (90%)
    Color primaries : BT.709
    Transfer characteristics : BT.709
    Matrix coefficients : BT.709

    Audio #1:
    ID : 529 (0x211)
    Menu ID : 1 (0x1)
    Format : MPEG Audio
    Format version : Version 1
    Format profile : Layer 2
    Codec ID : 3
    Duration : 3mn 51s
    Bit rate mode : Constant
    Bit rate : 256 Kbps
    Channel count : 2 channels
    Sampling rate : 48.0 KHz
    Compression mode : Lossy
    Stream size : 7.05 MiB (3%)
    Language : German

    Audio #2:
    ID : 539 (0x21B)
    Menu ID : 1 (0x1)
    Format : AC-3
    Format/Info : Audio Coding 3
    Mode extension : HI (hearing impaired)
    Format settings, Endianness : Big
    Codec ID : 6
    Duration : 3mn 51s
    Bit rate mode : Constant
    Bit rate : 192 Kbps
    Channel count : 2 channels
    Channel positions : Front: L R
    Sampling rate : 48.0 KHz
    Bit depth : 16 bits
    Compression mode : Lossy
    Stream size : 5.29 MiB (2%)
    Language : German

    Hidden Content:
    You must reply before you can see the hidden data contained here.
     
  2. OlivierLovatic

    OlivierLovatic Well-Known Member Capper

    Joined:
    Oct 23, 2013
    Messages:
    358
    Likes Received:
    267
    thank you so much :)
     
  3. Grailen

    Grailen Well-Known Member

    Joined:
    Oct 8, 2013
    Messages:
    549
    Likes Received:
    578
    Thank you
     
  4. rhea

    rhea Well-Known Member

    Joined:
    Jan 6, 2014
    Messages:
    5,403
    Likes Received:
    262
    thank you so much!
     
  5. joelh20101

    joelh20101 Well-Known Member

    Joined:
    Nov 4, 2013
    Messages:
    1,459
    Likes Received:
    136
    thank you so much:love:
     
  6. Dfrazzer

    Dfrazzer Super Moderator Staff Member Super Moderator Capper V . I . P. Donor

    Joined:
    Nov 4, 2013
    Messages:
    3,942
    Likes Received:
    7,927
    Thanks she's great.
     
  7. Crusha

    Crusha Well-Known Member Capper

    Joined:
    Oct 15, 2014
    Messages:
    2,350
    Likes Received:
    2,175
    thank you!!!!
     
  8. indreams2011

    indreams2011 Member

    Joined:
    Dec 10, 2014
    Messages:
    663
    Likes Received:
    19
     
  9. slill

    slill Member

    Joined:
    Jul 25, 2014
    Messages:
    929
    Likes Received:
    10
    thanks
     
  10. lukierrywhere

    lukierrywhere Member

    Joined:
    May 1, 2015
    Messages:
    157
    Likes Received:
    1
  11. Winterheart

    Winterheart Member

    Joined:
    Oct 2, 2015
    Messages:
    88
    Likes Received:
    2
  12. limonato

    limonato Member

    Joined:
    Dec 1, 2014
    Messages:
    182
    Likes Received:
    1
    thank you
     
  13. revilo18

    revilo18 Well-Known Member

    Joined:
    May 26, 2016
    Messages:
    1,310
    Likes Received:
    58
    thanjkj
     
  14. ramazanedvard

    ramazanedvard New Member

    Joined:
    Jan 14, 2016
    Messages:
    21
    Likes Received:
    0
  15. seregil

    seregil Member

    Joined:
    Sep 5, 2014
    Messages:
    103
    Likes Received:
    0
    thanks