CC Demi Lovato - Made In The USA (MUCHHD-1080i-DD5.1-AmazonBoy) [CC]

Discussion in 'MUCH HD' started by DETOX, Jan 15, 2016.

  1. DETOX

    DETOX K-POP fan ♡ VIXX V . I . P. Uploader

    Joined:
    Feb 20, 2014
    Messages:
    3,337
    Likes Received:
    23,669
    [​IMG]
    Code:
    General
    ID                                       : 1 (0x1)
    Complete name                            : Demi Lovato - Made In The USA (MUCHHD-1080i-DD5.1-AmazonBoy) [CC].ts
    Format                                   : MPEG-TS
    File size                                : 365 MiB
    Duration                                 : 4mn 38s
    Overall bit rate mode                    : Variable
    Overall bit rate                         : 11.0 Mbps
    Movie name                               : New Music Videos
    Law rating                               : E
    
    Video
    ID                                       : 3953 (0xF71)
    Menu ID                                  : 1 (0x1)
    Format                                   : MPEG Video
    Format version                           : Version 2
    Format profile                           : [email protected]
    Format settings, BVOP                    : Yes
    Format settings, Matrix                  : Custom
    Format settings, GOP                     : Variable
    Codec ID                                 : 2
    Duration                                 : 4mn 37s
    Bit rate mode                            : Variable
    Bit rate                                 : 10.1 Mbps
    Maximum bit rate                         : 24.0 Mbps
    Width                                    : 1 920 pixels
    Height                                   : 1 080 pixels
    Display aspect ratio                     : 16:9
    Frame rate                               : 29.970 fps
    Color space                              : YUV
    Chroma subsampling                       : 4:2:0
    Bit depth                                : 8 bits
    Compression mode                         : Lossy
    Bits/(Pixel*Frame)                       : 0.162
    Time code of first frame                 : 00:00:00;00
    Time code source                         : Group of pictures header
    Stream size                              : 333 MiB (91%)
    Writing library                          : (c) 1998-2012 Womble Multimedia, Inc. / MPEG Video Wizard DVD 5.0.1.100 (03/2011) / Sep 22 2012
    
    Audio
    ID                                       : 3954 (0xF72)
    Menu ID                                  : 1 (0x1)
    Format                                   : AC-3
    Format/Info                              : Audio Coding 3
    Mode extension                           : CM (complete main)
    Format settings, Endianness              : Big
    Codec ID                                 : 129
    Duration                                 : 4mn 37s
    Bit rate mode                            : Constant
    Bit rate                                 : 384 Kbps
    Channel(s)                               : 6 channels
    Channel positions                        : Front: L C R, Side: L R, LFE
    Sampling rate                            : 48.0 KHz
    Bit depth                                : 16 bits
    Compression mode                         : Lossy
    Stream size                              : 12.7 MiB (3%)
    Language                                 : English
    
    Text #1
    ID                                       : 3953 (0xF71)-CC1
    Menu ID                                  : 1 (0x1)
    Format                                   : EIA-608
    Muxing mode                              : A/53 / DTVCC Transport
    Muxing mode, more info                   : Muxed in Video #1
    Duration                                 : 4mn 37s
    Bit rate mode                            : Constant
    Stream size                              : 0.00 Byte (0%)
    
    Text #2
    ID                                       : 3953 (0xF71)-1
    Menu ID                                  : 1 (0x1)
    Format                                   : EIA-708
    Muxing mode                              : A/53 / DTVCC Transport
    Muxing mode, more info                   : Muxed in Video #1
    Duration                                 : 4mn 37s
    Bit rate mode                            : Constant
    Stream size                              : 0.00 Byte (0%)
    Server: cloud.mail.ru
    Hidden Content:
    You must reply before you can see the hidden data contained here.
     
    Dreamer, Dfrazzer and DDLovato like this.
  2. Loading...


  3. Dfrazzer

    Dfrazzer Super Moderator Staff Member Super Moderator Capper V . I . P. Donor

    Joined:
    Nov 4, 2013
    Messages:
    4,642
    Likes Received:
    9,960
    Thanks so much.
     
  4. DDLovato

    DDLovato Active Member

    Joined:
    Nov 12, 2015
    Messages:
    201
    Likes Received:
    51
    Thanks.
     
  5. Hyrus

    Hyrus Arianator / Selenator / Victorian / Saxobeat / LBS Donor

    Joined:
    Feb 9, 2015
    Messages:
    1,271
    Likes Received:
    952
    Thanks for sharing :)
     
  6. Snorom6

    Snorom6 Well-Known Member V . I . P. Uploader

    Joined:
    Dec 17, 2015
    Messages:
    4,247
    Likes Received:
    4,876
  7. MCTR

    MCTR Active Member

    Joined:
    Feb 23, 2014
    Messages:
    295
    Likes Received:
    40
    Thank You
     
  8. Dreamer

    Dreamer Lana Del Rey ♥ Halsey Capper V . I . P. Uploader

    Joined:
    Dec 4, 2014
    Messages:
    2,802
    Likes Received:
    3,921
    Thank you!
     
  9. lucky_jess

    lucky_jess Member

    Joined:
    Nov 28, 2015
    Messages:
    369
    Likes Received:
    5
    Thank you very much
     
  10. Lucky

    Lucky Active Member

    Joined:
    Sep 26, 2016
    Messages:
    330
    Likes Received:
    30
    thanks
     
  11. revilo18

    revilo18 Well-Known Member

    Joined:
    May 26, 2016
    Messages:
    1,851
    Likes Received:
    83
    THANKKK
     
  12. cawzha

    cawzha New Member

    Joined:
    Dec 15, 2016
    Messages:
    9
    Likes Received:
    0
    thanks
     
  13. ifuseekme

    ifuseekme Member

    Joined:
    Jun 26, 2016
    Messages:
    135
    Likes Received:
    7