CC Demi Lovato - Give Your Heart A Break (MUCHHD-1080i-DD5.1-AmazonBoy) [CC]

Discussion in 'MUCH HD' started by Dfrazzer, Mar 16, 2014.

  1. Dfrazzer

    Dfrazzer Super Moderator Staff Member Super Moderator Capper V . I . P. Donor

    Joined:
    Nov 4, 2013
    Messages:
    3,888
    Likes Received:
    7,710
    Requested by: Joseph

    [​IMG]
    [​IMG] [​IMG] [​IMG] [​IMG] [​IMG] [​IMG] [​IMG] [​IMG] [​IMG] [​IMG] [​IMG] [​IMG] [​IMG] [​IMG] [​IMG] [​IMG]


    General
    ID : 1 (0x1)
    Complete name : C:\Users\Darren\Downloads\HELLCLIPS.BT.13.DDD.Demi.Lovato.-.Give.Your.Heart.A.Break.MUCHHD-1080i-AmazonBoy\DL -GB.ts
    Format : MPEG-TS
    File size : 357 MiB
    Duration : 3mn 29s
    Overall bit rate mode : Variable
    Overall bit rate : 14.3 Mbps
    Maximum Overall bit rate : 35.5 Mbps
    Law rating : E

    Video
    ID : 4113 (0x1011)
    Menu ID : 1 (0x1)
    Format : MPEG Video
    Format version : Version 2
    Format profile : Main@High
    Format settings, BVOP : Yes
    Format settings, Matrix : Custom
    Format settings, GOP : Variable
    Codec ID : 2
    Duration : 3mn 29s
    Bit rate mode : Variable
    Bit rate : 13.2 Mbps
    Maximum bit rate : 20.0 Mbps
    Width : 1 920 pixels
    Height : 1 080 pixels
    Display aspect ratio : 16:9
    Frame rate : 29.970 fps
    Color space : YUV
    Chroma subsampling : 4:2:0
    Bit depth : 8 bits
    Scan type : Interlaced
    Scan order : Top Field First
    Compression mode : Lossy
    Bits/(Pixel*Frame) : 0.212
    Time code of first frame : 00:00:00;00
    Time code source : Group of pictures header
    Stream size : 329 MiB (92%)

    Audio
    ID : 4352 (0x1100)
    Menu ID : 1 (0x1)
    Format : AC-3
    Format/Info : Audio Coding 3
    Mode extension : CM (complete main)
    Format settings, Endianness : Big
    Codec ID : 129
    Duration : 3mn 29s
    Bit rate mode : Constant
    Bit rate : 384 Kbps
    Channel(s) : 6 channels
    Channel positions : Front: L C R, Side: L R, LFE
    Sampling rate : 48.0 KHz
    Bit depth : 16 bits
    Compression mode : Lossy
    Stream size : 9.60 MiB (3%)
    Language : English

    Text #1
    ID : 4113 (0x1011)-CC1
    Menu ID : 1 (0x1)
    Format : EIA-608
    Muxing mode : A/53 / DTVCC Transport
    Muxing mode, more info : Muxed in Video #1
    Duration : 3mn 29s
    Bit rate mode : Constant
    Stream size : 0.00 Byte (0%)

    Text #2
    ID : 4113 (0x1011)-1
    Menu ID : 1 (0x1)
    Format : EIA-708
    Muxing mode : A/53 / DTVCC Transport
    Muxing mode, more info : Muxed in Video #1
    Duration : 3mn 29s
    Bit rate mode : Constant
    Stream size : 0.00 Byte (0%)

    Hidden Content:
    You must reply before you can see the hidden data contained here.
     
    Last edited by a moderator: Oct 22, 2015
    eks22 and OlivierLovatic like this.
  2. Loading...


  3. KallumLavigne

    KallumLavigne Well-Known Member

    Joined:
    Nov 18, 2013
    Messages:
    675
    Likes Received:
    1,157
    Thanks
     
  4. Joseph

    Joseph Active Member

    Joined:
    Dec 10, 2013
    Messages:
    729
    Likes Received:
    147
    thanks!
     
  5. OlivierLovatic

    OlivierLovatic Well-Known Member Capper

    Joined:
    Oct 23, 2013
    Messages:
    357
    Likes Received:
    263
  6. mamadr

    mamadr Member

    Joined:
    Jan 20, 2014
    Messages:
    261
    Likes Received:
    15
    Thanks!
     
  7. grepitu

    grepitu Member

    Joined:
    Feb 1, 2014
    Messages:
    44
    Likes Received:
    6
    Thanks!
     
  8. ytyh

    ytyh Member

    Joined:
    Mar 30, 2014
    Messages:
    432
    Likes Received:
    4
    thank you
     
  9. celio

    celio Member

    Joined:
    Oct 29, 2013
    Messages:
    962
    Likes Received:
    15
    good
     
  10. lcva_mv

    lcva_mv New Member

    Joined:
    Jul 19, 2014
    Messages:
    18
    Likes Received:
    0
    thanks so much!
     
  11. iqson

    iqson Active Member

    Joined:
    Dec 30, 2013
    Messages:
    186
    Likes Received:
    65
    Thank you so much!!!
     
  12. Vinny

    Vinny Active Member

    Joined:
    Dec 26, 2013
    Messages:
    1,754
    Likes Received:
    7
    Thank you!
     
  13. xyzabc

    xyzabc Member

    Joined:
    Jan 13, 2014
    Messages:
    38
    Likes Received:
    0
    Thank you!
     
  14. dgnio

    dgnio Well-Known Member

    Joined:
    Jul 7, 2014
    Messages:
    1,522
    Likes Received:
    292
    thnks very very much!
     
  15. Dfrazzer

    Dfrazzer Super Moderator Staff Member Super Moderator Capper V . I . P. Donor

    Joined:
    Nov 4, 2013
    Messages:
    3,888
    Likes Received:
    7,710
    I just added a new link to my post.
     
  16. Lucky

    Lucky Member

    Joined:
    Sep 26, 2016
    Messages:
    229
    Likes Received:
    11
    thanks
     
  17. revilo18

    revilo18 Well-Known Member

    Joined:
    May 26, 2016
    Messages:
    1,310
    Likes Received:
    56
    THANKKK
     
  18. cawzha

    cawzha New Member

    Joined:
    Dec 15, 2016
    Messages:
    9
    Likes Received:
    0
    cool!
     
  19. cawzha

    cawzha New Member

    Joined:
    Dec 15, 2016
    Messages:
    9
    Likes Received:
    0
    thankss