Demi Lovato - Cool For The Summer The Voice AU S04E15 720p WebRip x264-Poke

Discussion in 'SD Live Performances' started by Dfrazzer, Aug 9, 2015.

  1. astra1234

    astra1234 Active Member

    Joined:
    Jul 1, 2016
    Messages:
    253
    Likes Received:
    36
    thanks
     
    Jiggaman likes this.
  2. thetruth

    thetruth Member

    Joined:
    Jan 7, 2014
    Messages:
    112
    Likes Received:
    3
    thanks
     
  3. vkcpthook

    vkcpthook Member

    Joined:
    Jul 25, 2016
    Messages:
    63
    Likes Received:
    2
  4. nvid

    nvid Member

    Joined:
    Sep 5, 2016
    Messages:
    36
    Likes Received:
    1
    thanks
     
  5. Jiggaman

    Jiggaman New Member

    Joined:
    Sep 15, 2016
    Messages:
    13
    Likes Received:
    0
    thank you!
     
  6. heartdreamer

    heartdreamer Member

    Joined:
    Sep 22, 2016
    Messages:
    82
    Likes Received:
    2
    Thanks!!!
     
  7. BetaKsi

    BetaKsi Well-Known Member

    Joined:
    Oct 18, 2015
    Messages:
    2,208
    Likes Received:
    583
    Thank you))
     
  8. 80ss

    80ss Member

    Joined:
    Nov 3, 2016
    Messages:
    322
    Likes Received:
    7
    Thank you
     
  9. vena

    vena Member

    Joined:
    Sep 22, 2016
    Messages:
    109
    Likes Received:
    3
    thanx
     
  10. kraddock

    kraddock Member

    Joined:
    Oct 3, 2016
    Messages:
    132
    Likes Received:
    2
    one of her hottest performances!
     
  11. peynir

    peynir Member

    Joined:
    Jan 7, 2017
    Messages:
    89
    Likes Received:
    3
    thank you
     
  12. dimafanasjev

    dimafanasjev Active Member

    Joined:
    Oct 6, 2016
    Messages:
    196
    Likes Received:
    25
  13. zuiderheide

    zuiderheide Well-Known Member

    Joined:
    Nov 18, 2013
    Messages:
    2,586
    Likes Received:
    87
  14. Fad

    Fad Member

    Joined:
    Aug 22, 2018
    Messages:
    193
    Likes Received:
    13
    Good job
     
  15. Lisa-20112011

    Lisa-20112011 Active Member

    Joined:
    Jun 25, 2018
    Messages:
    1,042
    Likes Received:
    16
    thank you
     
  16. uminomiyako

    uminomiyako Well-Known Member

    Joined:
    May 28, 2016
    Messages:
    2,916
    Likes Received:
    104
  17. Clepsodra

    Clepsodra Active Member

    Joined:
    Jan 15, 2017
    Messages:
    909
    Likes Received:
    174
    [​IMG] [​IMG] [​IMG] [​IMG] [​IMG] [​IMG] [​IMG] [​IMG] [​IMG] [​IMG] [​IMG] [​IMG] [​IMG] [​IMG] [​IMG] [​IMG] [​IMG] [​IMG] [​IMG] [​IMG] [​IMG] [​IMG] [​IMG] [​IMG] [​IMG] [​IMG] [​IMG] [​IMG] [​IMG] [​IMG] [​IMG] [​IMG] [​IMG] [​IMG] [​IMG] [​IMG] [​IMG] [​IMG] [​IMG] [​IMG] [​IMG] [​IMG] [​IMG] [​IMG] [​IMG] [​IMG] [​IMG] [​IMG] [​IMG] [​IMG] [​IMG]

    Code:
    General
    Complete name : C:\Users\Dfrazzer\Desktop\Demi Lovato - Cool For The Summer The Voice AU S04E15 720p WebRip x264-Poke.mp4
    Format : MPEG-4
    Format profile : Base Media
    Codec ID : isom
    File size : 141 MiB
    Duration : 5mn 53s
    Overall bit rate : 3 340 Kbps
    Writing application : Lavf54.63.104

    Video
    ID : 1
    Format : AVC
    Format/Info : Advanced Video Codec
    Format profile : Main@L3.1
    Format settings, CABAC : Yes
    Format settings, ReFrames : 3 frames
    Format settings, GOP : M=1, N=50
    Codec ID : avc1
    Codec ID/Info : Advanced Video Coding
    Duration : 5mn 53s
    Bit rate : 3 142 Kbps
    Width : 1 280 pixels
    Height : 720 pixels
    Display aspect ratio : 16:9
    Frame rate mode : Constant
    Frame rate : 25.000 fps
    Color space : YUV
    Chroma subsampling : 4:2:0
    Bit depth : 8 bits
    Scan type : Progressive
    Bits/(Pixel*Frame) : 0.136
    Stream size : 132 MiB (94%)

    Audio
    ID : 2
    Format : AAC
    Format/Info : Advanced Audio Codec
    Format profile : LC
    Codec ID : 40
    Duration : 5mn 53s
    Bit rate mode : Constant
    Bit rate : 192 Kbps
    Channel(s) : 2 channels
    Channel positions : Front: L R
    Sampling rate : 44.1 KHz
    Compression mode : Lossy
    Stream size : 8.09 MiB (6%)

    Hidden Content:
    You must reply before you can see the hidden data contained here.
     
  18. pizza14kk

    pizza14kk New Member

    Joined:
    Aug 29, 2017
    Messages:
    23
    Likes Received:
    3
    ok ok
     
  19. NEAL1905

    NEAL1905 Member

    Joined:
    Jul 9, 2018
    Messages:
    79
    Likes Received:
    0
    thanks
     
  20. Misaki Chiaki

    Misaki Chiaki Member

    Joined:
    Oct 10, 2018
    Messages:
    179
    Likes Received:
    8