Demi Lovato - Cool For The Summer The Voice AU S04E15 720p WebRip x264-Poke

Discussion in 'SD Live Performances' started by Dfrazzer, Aug 9, 2015.

  1. Dfrazzer

    Dfrazzer Super Moderator Staff Member Super Moderator Capper V . I . P. Donor

    Joined:
    Nov 4, 2013
    Messages:
    5,593
    Likes Received:
    13,185
    [​IMG] [​IMG] [​IMG] [​IMG] [​IMG] [​IMG] [​IMG] [​IMG] [​IMG] [​IMG] [​IMG] [​IMG] [​IMG] [​IMG] [​IMG] [​IMG] [​IMG] [​IMG] [​IMG] [​IMG] [​IMG] [​IMG] [​IMG] [​IMG] [​IMG] [​IMG] [​IMG] [​IMG] [​IMG] [​IMG] [​IMG] [​IMG] [​IMG] [​IMG] [​IMG] [​IMG] [​IMG] [​IMG] [​IMG] [​IMG] [​IMG] [​IMG] [​IMG] [​IMG] [​IMG] [​IMG] [​IMG] [​IMG] [​IMG] [​IMG] [​IMG]

    Code:
    General
    Complete name : C:\Users\Dfrazzer\Desktop\Demi Lovato - Cool For The Summer The Voice AU S04E15 720p WebRip x264-Poke.mp4
    Format : MPEG-4
    Format profile : Base Media
    Codec ID : isom
    File size : 141 MiB
    Duration : 5mn 53s
    Overall bit rate : 3 340 Kbps
    Writing application : Lavf54.63.104
    
    Video
    ID : 1
    Format : AVC
    Format/Info : Advanced Video Codec
    Format profile : Main@L3.1
    Format settings, CABAC : Yes
    Format settings, ReFrames : 3 frames
    Format settings, GOP : M=1, N=50
    Codec ID : avc1
    Codec ID/Info : Advanced Video Coding
    Duration : 5mn 53s
    Bit rate : 3 142 Kbps
    Width : 1 280 pixels
    Height : 720 pixels
    Display aspect ratio : 16:9
    Frame rate mode : Constant
    Frame rate : 25.000 fps
    Color space : YUV
    Chroma subsampling : 4:2:0
    Bit depth : 8 bits
    Scan type : Progressive
    Bits/(Pixel*Frame) : 0.136
    Stream size : 132 MiB (94%)
    
    Audio
    ID : 2
    Format : AAC
    Format/Info : Advanced Audio Codec
    Format profile : LC
    Codec ID : 40
    Duration : 5mn 53s
    Bit rate mode : Constant
    Bit rate : 192 Kbps
    Channel(s) : 2 channels
    Channel positions : Front: L R
    Sampling rate : 44.1 KHz
    Compression mode : Lossy
    Stream size : 8.09 MiB (6%)
    
    Hidden Content:
    You must reply before you can see the hidden data contained here.
    Original capper: Poke
     
    Jiggaman, vkcpthook, cegs9 and 4 others like this.
  2. Loading...


  3. nino.navy

    nino.navy Well-Known Member

    Joined:
    May 30, 2014
    Messages:
    3,218
    Likes Received:
    190
    Thanks so so so so much :D
     
  4. Carlos

    Carlos Active Member

    Joined:
    May 4, 2014
    Messages:
    670
    Likes Received:
    59
    Thank you so much
     
  5. marcelodc_

    marcelodc_ Member

    Joined:
    Oct 23, 2013
    Messages:
    192
    Likes Received:
    3
    thanks you
     
  6. V1de0Luvr

    V1de0Luvr Well-Known Member Capper

    Joined:
    Oct 7, 2013
    Messages:
    616
    Likes Received:
    8,205
    I was hoping for a live performance of this, thanks!
     
  7. VodzigorLans

    VodzigorLans Well-Known Member Capper

    Joined:
    Oct 18, 2013
    Messages:
    258
    Likes Received:
    726
    Wow! I hope we can get HD or HDTV rip in future. Thanks!
     
  8. benja

    benja Well-Known Member

    Joined:
    Jan 8, 2014
    Messages:
    1,620
    Likes Received:
    105
    Thank you so much
     
  9. maria paula

    maria paula Member

    Joined:
    Dec 8, 2013
    Messages:
    176
    Likes Received:
    13
    thank you
     
  10. paul

    paul Member

    Joined:
    Dec 29, 2013
    Messages:
    239
    Likes Received:
    7
    thank you
     
  11. Valentina

    Valentina Member

    Joined:
    Oct 25, 2013
    Messages:
    517
    Likes Received:
    15
    thank you!
     
  12. Donkey123

    Donkey123 Member

    Joined:
    May 4, 2014
    Messages:
    173
    Likes Received:
    9
    thank you
     
  13. toonbbv

    toonbbv Well-Known Member

    Joined:
    Dec 11, 2013
    Messages:
    2,276
    Likes Received:
    108
    thank you
     
  14. submariner9728

    submariner9728 Well-Known Member

    Joined:
    Dec 26, 2014
    Messages:
    1,177
    Likes Received:
    32
  15. adam dark

    adam dark Video Music Lover <3 V . I . P.

    Joined:
    Dec 5, 2013
    Messages:
    2,681
    Likes Received:
    5,758
    thank you!!
     
  16. javier vega

    javier vega Member

    Joined:
    Nov 16, 2013
    Messages:
    232
    Likes Received:
    5
    Thank You <3
     
  17. Andrey

    Andrey Member

    Joined:
    Feb 20, 2014
    Messages:
    97
    Likes Received:
    0
    thank you
     
  18. Adriano Everton

    Adriano Everton Well-Known Member

    Joined:
    Aug 25, 2014
    Messages:
    1,739
    Likes Received:
    185
  19. kinhoistheking88

    kinhoistheking88 Member

    Joined:
    Jun 27, 2014
    Messages:
    316
    Likes Received:
    8
    Than2s a 36t!
     
  20. celio

    celio Active Member

    Joined:
    Oct 29, 2013
    Messages:
    1,000
    Likes Received:
    19
    very nice
     
  21. joelh20101

    joelh20101 Well-Known Member

    Joined:
    Nov 4, 2013
    Messages:
    1,514
    Likes Received:
    162
    Thanks for this