Demi Lovato - Cool For The Summer (Multishow.HD.1080i.DD5.1).-Crusha

Discussion in 'MULTISHOW HD' started by Crusha, Aug 22, 2015.

  1. Crusha

    Crusha Well-Known Member Capper V . I . P.

    Joined:
    Oct 15, 2014
    Messages:
    2,358
    Likes Received:
    2,794
    [​IMG]

    General
    ID : 1 (0x1)
    Complete name : Demi Lovato - Cool For The Summer (Multishow.HD.1080i.DD5.1).-Crusha.ts
    Format : MPEG-TS
    File size : 93.1 MiB
    Duration : 3mn 39s
    Overall bit rate mode : Variable
    Overall bit rate : 3 556 Kbps

    Video
    ID : 2593 (0xA21)
    Menu ID : 2542 (0x9EE)
    Format : AVC
    Format/Info : Advanced Video Codec
    Format profile : High@L4
    Format settings, CABAC : Yes
    Format settings, ReFrames : 4 frames
    Codec ID : 27
    Duration : 3mn 39s
    Bit rate : 2 992 Kbps
    Width : 1 920 pixels
    Height : 1 080 pixels
    Display aspect ratio : 16:9
    Frame rate : 29.970 fps
    Standard : Component
    Color space : YUV
    Chroma subsampling : 4:2:0
    Bit depth : 8 bits
    Scan type : MBAFF
    Scan order : Top Field First
    Bits/(Pixel*Frame) : 0.048
    Stream size : 78.3 MiB (84%)
    Color range : Limited
    Color primaries : BT.709
    Transfer characteristics : BT.709
    Matrix coefficients : BT.709

    Audio
    ID : 3593 (0xE09)
    Menu ID : 2542 (0x9EE)
    Format : AC-3
    Format/Info : Audio Coding 3
    Mode extension : CM (complete main)
    Format settings, Endianness : Big
    Codec ID : 6
    Duration : 3mn 39s
    Bit rate mode : Constant
    Bit rate : 384 Kbps
    Channel(s) : 6 channels
    Channel positions : Front: L C R, Side: L R, LFE
    Sampling rate : 48.0 KHz
    Bit depth : 16 bits
    Compression mode : Lossy
    Stream size : 10.1 MiB (11%)
    Language : English

    Hidden Content:
    You must either reply or click 'Like' to see the hidden information contained here.
    Password: crusha
     
  2. Loading...


  3. Dfrazzer

    Dfrazzer Super Moderator Staff Member Super Moderator Capper V . I . P. Donor

    Joined:
    Nov 4, 2013
    Messages:
    5,205
    Likes Received:
    11,644
    Thanks so much.
     
  4. Marcelo Garcia Junior

    Marcelo Garcia Junior Member

    Joined:
    Jun 3, 2015
    Messages:
    634
    Likes Received:
    14
  5. femmemonsters

    femmemonsters Active Member

    Joined:
    Oct 8, 2015
    Messages:
    740
    Likes Received:
    38
  6. Hyrus

    Hyrus Arianator / Selenator / Victorian / Saxobeat / LBS Donor

    Joined:
    Feb 9, 2015
    Messages:
    1,409
    Likes Received:
    1,278
    Thanks for Demi :D:victory:
     
  7. GHN

    GHN Member

    Joined:
    Oct 27, 2014
    Messages:
    568
    Likes Received:
    17
    thank you
     
  8. Zeeh

    Zeeh Rallyforrivers.org

    Joined:
    Mar 20, 2015
    Messages:
    754
    Likes Received:
    30
    Thanks
     
  9. Thassyo

    Thassyo Well-Known Member

    Joined:
    Oct 9, 2013
    Messages:
    2,756
    Likes Received:
    1,233
    thanks
     
  10. maurohachen

    maurohachen Active Member

    Joined:
    Feb 24, 2015
    Messages:
    470
    Likes Received:
    27
    i love you
     
  11. danicoteca

    danicoteca Member

    Joined:
    Sep 10, 2016
    Messages:
    176
    Likes Received:
    17
  12. rikylouis14

    rikylouis14 Well-Known Member

    Joined:
    Jun 27, 2016
    Messages:
    779
    Likes Received:
    537
  13. edsonavril33

    edsonavril33 Member

    Joined:
    Jun 17, 2017
    Messages:
    270
    Likes Received:
    14